.
Авторизация | Регистрация
bitok.xyz
Торрент скачать бесплатно КПК и мобильные торрент скачать Кунг-фу панда: Лапки судьбы / Kung Fu Panda: The Paws of Destiny (2018) HDTVRip [H.264] (сезон 1, серии 1-13 из 13) WI Movie&LakeFilms [MP4|1280x720] [AD] торрент скачать бесплатно


    Кунг-фу панда: Лапки судьбы / Kung Fu Panda: The Paws of Destiny (2018) HDTVRip [H.264] (сезон 1, серии 1-13 из 13) WI Movie&LakeFilms [MP4|1280x720] [AD] торрент скачать бесплатно

    Дата: 21-11-2019, 05:00 | .torrent скачали: 1

    Кунг-фу панда: Лапки судьбы / Kung Fu Panda: The Paws of Destiny (2018) HDTVRip [H.264] (сезон 1, серии 1-13 из 13) WI Movie&LakeFilms [MP4|1280x720] [AD]Производство: США, DreamWorks Animation Television
    Жанр: Компьютерная анимация, Минисериал, Комедия, Фэнтези
    Режиссер: Лэйн Луэрас, Джеймс Вуттон, Рианна Уильямс, Джонни Кастучиано, Дэн Форджон, Майкл Маллен
    Актёры: Мик Уингерт, Лайя ДеЛеон Хэйес, Макана Сай, Гуннар Сайзмор, Хейли Тджу, Эми Хилл, Кристофер Свиндл, Джеймс Хонг, Петр Вальчук, Чериз Буф, Джефф Беннетт, Джеймс Си, Стивен Блум, Джейби Бланк, Сумали Монтано, Крисси Мец, Майкл Ривкин, Грэй Гриффин, Лейси Чаберт, Элиза Габриелли, Митч Уотсон, Джимми Вуд, Бетси Содаро

    Описание

    Уже никто и не помнит те времена, как По был обычным поклонником кунг-фу. Сейчас он — Воин Дракона, который стоит на защите своих земель и смело бросает вызов всем врагам. Ему пришлось пережить множество опасных приключений. Он с честью прошел все испытания и лишь совершенствовал свои навыки. Казалось, что По преодолел все самое страшное и теперь его сложно будет чем-то удивить или напугать. Но самое серьезное испытание его ждет впереди. Четверо энергичных детенышей панды наткнулись на таинственную пещеру, которую решили исследовать. Они и не подозревали, что станут обладателями мощной силы древних воинов кунг-фу. Поскольку их новые способности очень опасны, им предстоит научиться контролировать их... При помощи...По.

    Возраст: этот продукт не был классифицирован
    Рейтинг MPAA: этот продукт не был классифицирован
    Дата мировой премьеры: 16.11.2018
    Релиз от: WI Movie при поддержке LakeFilms
    Продолжительность: ~ 00: 23: 45 серия
    Качество видео: HDTVRip
    Перевод: Многоголосый закадровый, профессиональный - WI MovieLakeFilms (официальный русский от Amazon Prime при участии Марии Конаковой)
    Роли озвучивали: Алёна Тельпук, Рута Новикова, Гульнара Бевз, Мария Конакова, Анатолий Котовский, Артемий Яшин, Silver Tatsu, Ленар Гиматдинов и другие.
    Субтитры: русские (вшитая реклама студии дважды за серию)
    Реклама: присутствуют аудио и видео вставки рекламы (1xbet)
    Видео: AVC/H.264, 1280x720, ~3 555 Kbps
    Аудио: AAC, 2 ch, 165 Kbps
    General
    Complete name : D: Kung.Fu.Panda.The.Paws.of.Destiny.S01.720.HDTV.WI MovieLakeFilmsKung.Fu.Panda.The.Paws.of.Destiny.S01E08.720.HDTV.WI MovieLakeFilms.mp4
    Format : MPEG-4
    Format profile : Base Media
    Codec ID : isom (isom/iso2/avc1/mp41)
    File size : 621 MiB
    Duration : 23 min 45 s
    Overall bit rate mode : Variable
    Overall bit rate : 3 656 kb/s
    Writing application : Lavf55.37.101
    Video
    ID : 1
    Format : AVC
    Format/Info : Advanced Video Codec
    Format profile : Main@L3.1
    Format settings : CABAC/4 Ref Frames
    Format settings, CABAC : Yes
    Format settings, Reference : 4 frames
    Codec ID : avc1
    Codec ID/Info : Advanced Video Coding
    Duration : 23 min 45 s
    Bit rate : 3 555 kb/s
    Width : 1 280 pixels
    Height : 720 pixels
    Display aspect ratio : 16: 9
    Frame rate mode : Constant
    Frame rate : 23.976 (24000/1001) FPS
    Color space : YUV
    Chroma subsampling : 4: 2: 0
    Bit depth : 8 bits
    Scan type : Progressive
    Bits/(Pixel*Frame) : 0.161
    Stream size : 592 MiB (95%)
    Writing library : x264 core 119
    Encoding settings : cabac=1/ref=1/deblock=1: 0: 0/analyse=0x1: 0x1/me=dia/subme=1/psy=1/psy_rd=1.00: 0.00/mixed_ref=0/me_range=16/chroma_me=1/trellis=0/8x8dct=0/cqm=0/deadzone=21, 11/fast_pskip=1/chroma_qp_offset=0/threads=8/sliced_threads=0/nr=0/decimate=1/interlaced=0/bluray_compat=0/constrained_intra=0/bframes=3/b_pyramid=2/b_adapt=1/b_bias=0/direct=1/weightb=1/open_gop=0/weightp=1/keyint=250/keyint_min=23/scenecut=40/intra_refresh=0/rc=abr/mbtree=0/bitrate=3555/ratetol=1.0/qcomp=0.60/qpmin=0/qpmax=69/qpstep=4/ip_ratio=1.40/pb_ratio=1.30/aq=1: 1.00
    Language : English
    Codec configuration box : avcC
    Audio
    ID : 2
    Format : AAC LC
    Format/Info : Advanced Audio Codec Low Complexity
    Codec ID : mp4a-40-2
    Duration : 23 min 45 s
    Bit rate mode : Variable
    Bit rate : 165 kb/s
    Maximum bit rate : 192 kb/s
    Channel(s) : 2 channels
    Channel layout : L R
    Sampling rate : 48.0 kHz
    Frame rate : 46.875 FPS (1024 SPF)
    Compression mode : Lossy
    Stream size : 28.1 MiB (5%)
    Language : English
    Default : Yes
    Alternate group : 1


    Кунг-фу панда: Лапки судьбы / Kung Fu Panda: The Paws of Destiny (2018) HDTVRip [H.264] (сезон 1, серии 1-13 из 13) WI Movie&LakeFilms [MP4|1280x720] [AD] торрент скачать бесплатно
    Рейтинг →
     (голосов: 1, оценка 5/5, голосовать можно 1 раз )

    Другие торренты по теме:

  • Кунг-Фу Панда: Захватывающие Легенды / Удивительные / Афигенские / Kung-Fu Panda: Legends of Awesomeness (2013) WEB-DLRip (Сезон 3, серии 1-11) (Обновляемая)
  • Кунг-фу Панда 3 / Kung Fu Panda 3 (2016) WEBRip [H.264 / 1080p] [Тизер] [JP] скачать через торрент бесплатно
  • Кунг-фу Панда 3 / Kung Fu Panda 3 (2016) WEBRip [H.264 / 1080p] [Трейлер] скачать через торрент бесплатно
  • Kung Fu Panda / Кунг-фу Панда (2008) [Xbox360] [RegionFree] [FreeBoot] [Unofficial] [Ru] | R.G.DShock скачать через торрент бесплатно
  • Кунг-фу Панда / Kung Fu Panda (2008) BDRip [H.264 / 1080p]
  • Кунг-фу Панда / Kung Fu Panda (2008) BDRip [H.264 / 1080p-LQ]
  • Кунг-фу Панда 3 / Kung Fu Panda 3 (2016) CamRip
  • Кунг-фу Панда 2 / Kung Fu Panda 2 (2011) BDRip [H.264 / 1080p-LQ]


    • Комментарии (0):

      Информация

      Информация

        Посетители, находящиеся в группе Гости, не могут оставлять комментарии в данной новости.

        ↓ Меню




        ↓ Опрос

        Вы добавили сайт в закладки?
        Да
        Нет


        Популярное

        Карты для iGo 2019.Q2 HERE (NQ, NavTeq) Европа [25.07.2019]

        (скачиваний: 155)
        Гоголь: Начало, Вий, Месть. Трилогия (2017, 2018) HDRip [H.264] [MP4|1080p]

        (скачиваний: 144)
        Властелин Колец: Братва и кольцо / Две сорванные башни / Возвращение Бомжа (2002 / 2003 / 2004) (Трилогия) BDRip [H.264] [MP4|1920x1080] Гоблин [Пародия]

        (скачиваний: 134)
        Властелин колец: Трилогия (The Lord of the Rings: Trilogy) (Extended Cut) (2001 / 2002 / 2003) [MP4 | 960x400] <BDRip H.264>

        (скачиваний: 71)
        Кукутики: Полная коллекция / (Kukutiki: Full collection) (2015-2018) WEB-DLRip [H.264] (Серии 1-79 из 79 + Караоке версии 1-16 из 16) [MP4|1280x720]

        (скачиваний: 70)
        Начало / Inception (2010) DVDRip [MP4|640x272]

        (скачиваний: 38)
        Нереальная история. Менделеев и раствор (2012-2013) WEBRip [H.264] (серии 1-13 из 13) [MP4|720x404] [нарезка]

        (скачиваний: 32)
        NaviTel / Навител Навигатор v9.10.2281 [Ru / Multi] (Windows CE)

        (скачиваний: 32)
        Сборка iGO Primo NextGen 9.19.1.484935 WinCE [Ru / Multi] - навигационный программный комплекс для устройств с WinCE скачать через торрент бесплатно

        (скачиваний: 31)
        Разлом Сан-Андреас / San Andreas (2015) HDRip [H.264] [MP4|960х400] скачать через торрент бесплатно

        (скачиваний: 30)