.
Авторизация | Регистрация
bitok.xyz
Торрент скачать бесплатно КПК и мобильные торрент скачать Отчим (2019) WEB-DL [H.264] (сезон 1, серии 1-16 из 16) [MP4|1920x1080] торрент скачать бесплатно


    Отчим (2019) WEB-DL [H.264] (сезон 1, серии 1-16 из 16) [MP4|1920x1080] торрент скачать бесплатно

    Дата: 28-11-2019, 05:00 | .torrent скачали: 4

    Отчим (2019) WEB-DL [H.264] (сезон 1, серии 1-16 из 16) [MP4|1920x1080]Производство: Россия/Бонанза Студио, Киностудия КИТ
    Жанр: драма, история
    Режиссер: Сергей Гинзбург
    Актеры: Карина Андоленко, Антон Хабаров, Владимир Гостюхин, Василий Бочкарев, Александр Бухаров, Алексей Колган, Вильма Кутавичюте, Юрий Степанов, Артем Быстров, Ксения Теплова и др.

    Описание

    Настя — первая красавица в округе. На нее засматриваются мужчины, но Настя терпеливо ждет с войны мужа Ивана. И хранит ему верность. Не из страха перед суровым свекром, и не из-за того, что другие осудят, а потому что живет с внутренним ощущением правильности своего выбора. Несмотря на то, что с окончания войны прошло уже семь долгих лет, сердце подсказывает ей, что ее Иван жив. Ждет отца и их маленький сын Мишка — защитник и опора матери. Вокруг полно советчиков: Жизнь пройдет! Лучшие женские годы упускаешь!. Но Настя продолжает ждать и верить.

    Возраст: 16+ (зрителям, достигшим 16 лет)
    Дата российской премьеры: 4 ноября 2019
    Продолжительность: ~00: 50: 00 серия
    Качество видео: WEB-DL
    Субтитры: Отсутствуют
    Видео: AVC/H.264, 1920x1080 (16: 9), ~1500 Kbps
    Аудио: AAC, 2 ch, 128 Kbps
    Общее
    Полное имя : F: Отчим (2019)Отчим. 01 серия.mp4
    Формат : MPEG-4
    Профиль формата : Base Media
    Размер файла : 601 Мбайт
    Продолжительность : 52 м. 4 с.
    Общий поток : 1613 Кбит/сек
    Программа кодирования : Lavf56.23.105
    Видео
    Идентификатор : 1
    Формат : AVC
    Формат/Информация : Advanced Video Codec
    Профиль формата : High@L4
    Настройки формата : CABAC/3 Ref Frames
    Параметр CABAC формата : Да
    Параметр RefFrames формата : 3 кадра
    Идентификатор кодека : avc1
    Идентификатор кодека/Информация : Advanced Video Coding
    Продолжительность : 52 м. 4 с.
    Битрейт : 1478 Кбит/сек
    Ширина : 1920 пикселей
    Высота : 1080 пикселей
    Соотношение сторон : 16: 9
    Режим частоты кадров : Постоянный
    Частота кадров : 25, 000 кадров/сек
    Цветовое пространство : YUV
    Субдискретизация насыщенности : 4: 2: 0
    Битовая глубина : 8 бит
    Тип развёртки : Прогрессивная
    Бит/(Пиксели*Кадры) : 0.029
    Размер потока : 551 Мбайт (92%)
    Библиотека кодирования : x264 core 155 r2901 7d0ff22
    Цветовой диапазон : Limited
    Основные цвета : BT.709
    Характеристики трансфера : BT.709
    Коэффициенты матрицы : BT.709
    Codec configuration box : avcC
    Аудио
    Идентификатор : 2
    Формат : AAC LC
    Формат/Информация : Advanced Audio Codec Low Complexity
    Продолжительность : 52 м. 4 с.
    Вид битрейта : Постоянный
    Битрейт : 128 Кбит/сек
    Каналы : 2 канала
    ChannelLayout : L R
    Частота : 44, 1 КГц
    Частота кадров : 43, 066 кадра/сек (1024 SPF)
    Метод сжатия : С потерями
    Размер потока : 47, 7 Мбайт (8%)
    Default : Да
    AlternateGroup/String : 1
    Скриншоты:


    Все одноименные релизы в Клубе
    Время раздачи: 24/7 (круглосуточно) (до появления первых 3-5 скачавших)

    Отчим (2019) WEB-DL [H.264] (сезон 1, серии 1-16 из 16) [MP4|1920x1080] торрент скачать бесплатно
    Рейтинг →
     (голосов: 1, оценка 4/5, голосовать можно 1 раз )

    Другие торренты по теме:

  • Отчим / Beau-pere (1981) DVD9 [MVO]
  • Отчим / The Stepfather (1987) HDRip
  • Отчим / Beau-pere (1981) DVD9 [MVO]
  • Отчим / The Stepfather (1986) Blu-ray [H.264 / 1080p] [Custom]
  • Отчим (2019) SATRip [H.264] (сезон 1, серии 1-6 из 16) (обновляемая)
  • Отчим (2019) HDTVRip (сезон 1, серии 1-16 из 16)
  • Отчим (2019) HDTVRip [H.264] (сезон 1, серии 1-16 из 16)


    • Комментарии (0):

      Информация

      Информация

        Посетители, находящиеся в группе Гости, не могут оставлять комментарии в данной новости.

        ↓ Меню




        ↓ Опрос

        Вы добавили сайт в закладки?
        Да
        Нет


        Популярное

        Карты для iGo 2019.Q2 HERE (NQ, NavTeq) Европа [25.07.2019]

        (скачиваний: 155)
        Гоголь: Начало, Вий, Месть. Трилогия (2017, 2018) HDRip [H.264] [MP4|1080p]

        (скачиваний: 144)
        Властелин Колец: Братва и кольцо / Две сорванные башни / Возвращение Бомжа (2002 / 2003 / 2004) (Трилогия) BDRip [H.264] [MP4|1920x1080] Гоблин [Пародия]

        (скачиваний: 134)
        Властелин колец: Трилогия (The Lord of the Rings: Trilogy) (Extended Cut) (2001 / 2002 / 2003) [MP4 | 960x400] <BDRip H.264>

        (скачиваний: 71)
        Кукутики: Полная коллекция / (Kukutiki: Full collection) (2015-2018) WEB-DLRip [H.264] (Серии 1-79 из 79 + Караоке версии 1-16 из 16) [MP4|1280x720]

        (скачиваний: 70)
        Начало / Inception (2010) DVDRip [MP4|640x272]

        (скачиваний: 38)
        Нереальная история. Менделеев и раствор (2012-2013) WEBRip [H.264] (серии 1-13 из 13) [MP4|720x404] [нарезка]

        (скачиваний: 32)
        NaviTel / Навител Навигатор v9.10.2281 [Ru / Multi] (Windows CE)

        (скачиваний: 32)
        Сборка iGO Primo NextGen 9.19.1.484935 WinCE [Ru / Multi] - навигационный программный комплекс для устройств с WinCE скачать через торрент бесплатно

        (скачиваний: 31)
        Разлом Сан-Андреас / San Andreas (2015) HDRip [H.264] [MP4|960х400] скачать через торрент бесплатно

        (скачиваний: 30)