.
Авторизация | Регистрация
bitok.xyz
Торрент скачать бесплатно КПК и мобильные торрент скачать Сто к одному (14.12.2019) WEB-DL [H.264] [MP4|1280x720] торрент скачать бесплатно


    Сто к одному (14.12.2019) WEB-DL [H.264] [MP4|1280x720] торрент скачать бесплатно

    Дата: 15-12-2019, 05:00 | .torrent скачали: 1

    Сто к одному (14.12.2019) WEB-DL [H.264] [MP4|1280x720]Телекомпания: Россия 1
    Жанр: Тв-Шоу

    Описание

    Цель участников игры ‘Сто к одному’ состоит в том, чтобы угадать наиболее распространённые ответы людей с улицы на предложенные вопросы, на которые невозможно дать однозначный объективный ответ, например, ‘Какую еду больше всего любят французы?’. Ответы бывают порой совершенно непредсказуемы и очень забавны. К примеру, на вопрос ‘Кто поддерживает порядок в стране?’ десять из ста случайных прохожих могли дать ответ ‘дворники’.
    Другие примеры вопросов: ‘Что делает женщина, когда у неё сломался каблук?’, ‘Каких насекомых чаще всего убивают?’.
    ‘Сто к одному’ — командная игра. Каждый игрок должен высказать своё мнение, предложить свою версию, но победа (или поражение) достаётся всей команде в целом. Чаще всего команды для телеигры составляются по профессиональному признаку, и нередко в игре принимают участие популярные певцы, актёры, спортсмены.
    Продолжительность: 00: 39: 19
    Качество видео: WEB-DL
    Субтитры: Отсутствуют
    Видео: AVC/H.264, 1280x720, ~969 kbps
    Аудио: AAC, 2 ch, 128 kbps
    Общее
    Полное имя : D: ВидеоСто к одному HD 14.12.2019.mp4
    Формат : MPEG-4
    Профиль формата : Base Media/Version 2
    Идентификатор кодека : mp42
    Размер файла : 310 Мбайт
    Продолжительность : 39 м.
    Режим общего битрейта : Переменный
    Общий поток : 1100 Кбит/сек
    Дата кодирования : UTC 2019-12-14 09: 46: 55
    Дата пометки : UTC 2019-12-14 09: 46: 55
    gsst : 0
    gstd : 2359727
    Видео
    Идентификатор : 1
    Формат : AVC
    Формат/Информация : Advanced Video Codec
    Профиль формата : Main@L3.1
    Параметр CABAC формата : Да
    Параметр ReFrames формата : 3 кадра
    Идентификатор кодека : avc1
    Идентификатор кодека/Информация : Advanced Video Coding
    Продолжительность : 39 м.
    Вид битрейта : Переменный
    Битрейт : 969 Кбит/сек
    Ширина : 1280 пикселей
    Высота : 720 пикселей
    Соотношение сторон : 16: 9
    Режим частоты кадров : Постоянный
    Частота кадров : 25, 000 кадров/сек
    Цветовое пространство : YUV
    Субдискретизация насыщенности : 4: 2: 0
    Битовая глубина : 8 бит
    Тип развёртки : Прогрессивная
    Бит/(Пиксели*Кадры) : 0.042
    Размер потока : 273 Мбайт (88%)
    Заголовок : ISO Media file produced by Google Inc. Created on: 12/14/2019.
    Библиотека кодирования : x264 core 155 r2901 7d0ff22
    Дата кодирования : UTC 2019-12-14 09: 46: 55
    Дата пометки : UTC 2019-12-14 09: 46: 55
    Основные цвета : BT.709-5, BT.1361, IEC 61966-2-4, SMPTE RP177
    Характеристики трансфера : BT.709-5, BT.1361
    Коэффициенты матрицы : BT.709-5, BT.1361, IEC 61966-2-4 709, SMPTE RP177
    Аудио
    Идентификатор : 2
    Формат : AAC
    Формат/Информация : Advanced Audio Codec
    Профиль формата : LC
    Идентификатор кодека : 40
    Продолжительность : 39 м.
    Вид битрейта : Переменный
    Битрейт : 128 Кбит/сек
    Каналы : 2 канала
    Расположение каналов : Front: L R
    Частота : 44, 1 КГц
    Метод сжатия : С потерями
    Задержка видео : -40 мс.
    Размер потока : 36, 0 Мбайт (12%)
    Заголовок : ISO Media file produced by Google Inc. Created on: 12/14/2019.
    Язык : English
    Дата кодирования : UTC 2019-12-14 09: 46: 55
    Дата пометки : UTC 2019-12-14 09: 46: 55
    Скриншоты:


    Все одноименные релизы в Клубе
    Время раздачи: (до появления первых 3-5 скачавших)

    Сто к одному (14.12.2019) WEB-DL [H.264] [MP4|1280x720] торрент скачать бесплатно
    Рейтинг →
     (голосов: 1, оценка 5/5, голосовать можно 1 раз )

    Другие торренты по теме:

  • Пятьдесят к одному / 50 to 1 (2014) WEB-DL [H.264 / 720p-LQ] скачать через торрент бесплатно
  • Пятьдесят к одному / 50 to 1 (2014) WEB-DL [1080p] ATV скачать через торрент бесплатно
  • Сто к одному (02.11.2019) WEB-DL [H.264 / 720p-LQ] [MP4|1280x720]
  • Сто к одному (04.11.2019) WEB-DL [H.264 / 720p-LQ] [MP4|1280x720]
  • Сто к одному (03.11.2019) WEB-DL [H.264 / 720p-LQ] [MP4|1280x720]
  • Сто к одному (09.11.2019) WEB-DL [H.264 / 720p-LQ] [MP4|1280x720]
  • Сто к одному (10.11.2019) WEB-DL [H.264] [MP4|1280x720]
  • Сто к одному (16.11.2019) WEB-DL [H.264] [MP4|1280x720]


    • Комментарии (0):

      Информация

      Информация

        Посетители, находящиеся в группе Гости, не могут оставлять комментарии в данной новости.

        ↓ Меню




        ↓ Опрос

        Вы добавили сайт в закладки?
        Да
        Нет


        Популярное

        Карты для iGo 2019.Q2 HERE (NQ, NavTeq) Европа [25.07.2019]

        (скачиваний: 155)
        Гоголь: Начало, Вий, Месть. Трилогия (2017, 2018) HDRip [H.264] [MP4|1080p]

        (скачиваний: 144)
        Властелин Колец: Братва и кольцо / Две сорванные башни / Возвращение Бомжа (2002 / 2003 / 2004) (Трилогия) BDRip [H.264] [MP4|1920x1080] Гоблин [Пародия]

        (скачиваний: 134)
        Властелин колец: Трилогия (The Lord of the Rings: Trilogy) (Extended Cut) (2001 / 2002 / 2003) [MP4 | 960x400] <BDRip H.264>

        (скачиваний: 71)
        Кукутики: Полная коллекция / (Kukutiki: Full collection) (2015-2018) WEB-DLRip [H.264] (Серии 1-79 из 79 + Караоке версии 1-16 из 16) [MP4|1280x720]

        (скачиваний: 70)
        Начало / Inception (2010) DVDRip [MP4|640x272]

        (скачиваний: 38)
        Нереальная история. Менделеев и раствор (2012-2013) WEBRip [H.264] (серии 1-13 из 13) [MP4|720x404] [нарезка]

        (скачиваний: 32)
        NaviTel / Навител Навигатор v9.10.2281 [Ru / Multi] (Windows CE)

        (скачиваний: 32)
        Сборка iGO Primo NextGen 9.19.1.484935 WinCE [Ru / Multi] - навигационный программный комплекс для устройств с WinCE скачать через торрент бесплатно

        (скачиваний: 31)
        Разлом Сан-Андреас / San Andreas (2015) HDRip [H.264] [MP4|960х400] скачать через торрент бесплатно

        (скачиваний: 30)