.
Авторизация | Регистрация
bitok.xyz
Торрент скачать бесплатно КПК и мобильные торрент скачать Мандалорец / The Mandalorian (2019) WEB-DL [H.264] (сезон 1, серии 1-8 из 8) [MP4|1280x532] Kerob [AD] торрент скачать бесплатно


    Мандалорец / The Mandalorian (2019) WEB-DL [H.264] (сезон 1, серии 1-8 из 8) [MP4|1280x532] Kerob [AD] торрент скачать бесплатно

    Дата: 30-12-2019, 05:00 | .torrent скачали: 10

    Мандалорец / The Mandalorian (2019) WEB-DL [H.264] (сезон 1, серии 1-8 из 8) [MP4|1280x532] Kerob [AD]Производство: США/Lucasfilm Ltd., Walt Disney Studios
    Жанр: фантастика, боевик, приключения
    Режиссер: Дебора Чоу, Рик Фамуйива, Дэйв Филони
    Актеры: Кайл Пацек, Педро Паскаль, Брендан Уэйн, Бернард Баллен, Александра Гилман, Тейт Флетчер, Омид Абтахи и др.

    Описание

    Одинокий мандалорец-наёмник живёт на краю обитаемой галактики, куда не дотягивается закон Новой Республики. Представитель некогда могучей расы благородных воинов теперь вынужден влачить жалкое существование среди отбросов общества.

    Дата мировой премьеры: 12.11.2019
    Релиз от: Kerob.tv
    Продолжительность: ~00: 39: 00 серия
    Качество видео: WEB-DL
    Перевод: Многоголосый любительский (Kerob)
    Реклама: присутствуют аудио и видео вставки рекламы
    Видео: AVC/H.264, 1280x532, 3300-4000 Kbps
    Аудио: AAC, 2 ch, 192 Kbps
    Общее
    Полное имя : D: TorrentMandalorain.Season1 (2019)The.Mandalorian.S01.720p.KerobThe.Mandalorian.S01E01.720p.Kerob.mp4
    Формат : MPEG-4
    Профиль формата : Base Media
    Идентификатор кодека : isom (isom/iso2/avc1/mp41)
    Размер файла : 988 Мбайт
    Продолжительность : 39 м. 26 с.
    Режим общего битрейта : Переменный
    Общий поток : 3502 Кбит/сек
    Программа кодирования : Lavf58.12.100
    Видео
    Идентификатор : 1
    Формат : AVC
    Формат/Информация : Advanced Video Codec
    Профиль формата : High@L3.1
    Настройки формата : CABAC/1 Ref Frames
    Параметр CABAC формата : Да
    Параметр RefFrames формата : 1 кадр
    Параметр GOP формата : M=1, N=25
    Идентификатор кодека : avc1
    Идентификатор кодека/Информация : Advanced Video Coding
    Продолжительность : 39 м. 26 с.
    Вид битрейта : Постоянный
    Битрейт : 3300 Кбит/сек
    Ширина : 1280 пикселей
    Высота : 532 пикселя
    Соотношение сторон : 2, 40: 1
    Режим частоты кадров : Переменный
    Частота кадров : 23, 976 (24000/1001) кадра/сек
    Минимальная частота кадров : 23, 810 кадра/сек
    Максимальная частота кадров : 24, 390 кадра/сек
    Цветовое пространство : YUV
    Субдискретизация насыщенности : 4: 2: 0
    Битовая глубина : 8 бит
    Тип развёртки : Прогрессивная
    Бит/(Пиксели*Кадры) : 0.202
    Размер потока : 931 Мбайт (94%)
    Codec configuration box : avcC
    Аудио
    Идентификатор : 2
    Формат : AAC LC
    Формат/Информация : Advanced Audio Codec Low Complexity
    Идентификатор кодека : mp4a-40-2
    Продолжительность : 39 м. 25 с.
    Вид битрейта : Переменный
    Битрейт : 192 Кбит/сек
    Максимальный битрейт : 256 Кбит/сек
    Каналы : 2 канала
    ChannelLayout : L R
    Частота : 48, 0 КГц
    Частота кадров : 46, 875 кадров/сек (1024 SPF)
    Метод сжатия : С потерями
    Размер потока : 55, 2 Мбайт (6%)
    Default : Да
    AlternateGroup/String : 1
    Общее
    Полное имя : D: TorrentMandalorain.Season1 (2019)The.Mandalorian.S01.720p.KerobThe.Mandalorian.S01E02.720p.Kerob.mp4
    Формат : MPEG-4
    Профиль формата : Base Media
    Идентификатор кодека : isom (isom/iso2/avc1/mp41)
    Размер файла : 769 Мбайт
    Продолжительность : 30 м. 41 с.
    Режим общего битрейта : Переменный
    Общий поток : 3503 Кбит/сек
    Программа кодирования : Lavf58.12.100
    Видео
    Идентификатор : 1
    Формат : AVC
    Формат/Информация : Advanced Video Codec
    Профиль формата : High@L3.1
    Настройки формата : CABAC/1 Ref Frames
    Параметр CABAC формата : Да
    Параметр RefFrames формата : 1 кадр
    Параметр GOP формата : M=1, N=25
    Идентификатор кодека : avc1
    Идентификатор кодека/Информация : Advanced Video Coding
    Продолжительность : 30 м. 41 с.
    Вид битрейта : Постоянный
    Битрейт : 3300 Кбит/сек
    Ширина : 1280 пикселей
    Высота : 532 пикселя
    Соотношение сторон : 2, 40: 1
    Режим частоты кадров : Переменный
    Частота кадров : 23, 976 (24000/1001) кадра/сек
    Минимальная частота кадров : 23, 810 кадра/сек
    Максимальная частота кадров : 24, 390 кадра/сек
    Цветовое пространство : YUV
    Субдискретизация насыщенности : 4: 2: 0
    Битовая глубина : 8 бит
    Тип развёртки : Прогрессивная
    Бит/(Пиксели*Кадры) : 0.202
    Размер потока : 724 Мбайт (94%)
    Codec configuration box : avcC
    Аудио
    Идентификатор : 2
    Формат : AAC LC
    Формат/Информация : Advanced Audio Codec Low Complexity
    Идентификатор кодека : mp4a-40-2
    Продолжительность : 30 м. 41 с.
    Вид битрейта : Переменный
    Битрейт : 196 Кбит/сек
    Максимальный битрейт : 256 Кбит/сек
    Каналы : 2 канала
    ChannelLayout : L R
    Частота : 48, 0 КГц
    Частота кадров : 46, 875 кадров/сек (1024 SPF)
    Метод сжатия : С потерями
    Размер потока : 43, 1 Мбайт (6%)
    Default : Да
    AlternateGroup/String : 1
    Общее
    Полное имя : D: TorrentMandalorain.Season1 (2019)The.Mandalorian.S01.720p.KerobThe.Mandalorian.S01E03.720p.Kerob.mp4
    Формат : MPEG-4
    Профиль формата : Base Media
    Идентификатор кодека : isom (isom/iso2/avc1/mp41)
    Размер файла : 1, 01 Гбайт
    Продолжительность : 34 м. 33 с.
    Режим общего битрейта : Постоянный
    Общий поток : 4199 Кбит/сек
    Программа кодирования : Lavf58.12.100
    Видео
    Идентификатор : 1
    Формат : AVC
    Формат/Информация : Advanced Video Codec
    Профиль формата : High@L3.1
    Настройки формата : CABAC/1 Ref Frames
    Параметр CABAC формата : Да
    Параметр RefFrames формата : 1 кадр
    Параметр GOP формата : M=1, N=25
    Идентификатор кодека : avc1
    Идентификатор кодека/Информация : Advanced Video Coding
    Продолжительность : 34 м. 33 с.
    Вид битрейта : Постоянный
    Битрейт : 4000 Кбит/сек
    Ширина : 1280 пикселей
    Высота : 532 пикселя
    Соотношение сторон : 2, 40: 1
    Режим частоты кадров : Постоянный
    Частота кадров : 23, 976 (24000/1001) кадра/сек
    Цветовое пространство : YUV
    Субдискретизация насыщенности : 4: 2: 0
    Битовая глубина : 8 бит
    Тип развёртки : Прогрессивная
    Бит/(Пиксели*Кадры) : 0.245
    Размер потока : 989 Мбайт (95%)
    Codec configuration box : avcC
    Аудио
    Идентификатор : 2
    Формат : AAC LC
    Формат/Информация : Advanced Audio Codec Low Complexity
    Идентификатор кодека : mp4a-40-2
    Продолжительность : 34 м. 33 с.
    Вид битрейта : Постоянный
    Битрейт : 192 Кбит/сек
    Каналы : 2 канала
    ChannelLayout : L R
    Частота : 48, 0 КГц
    Частота кадров : 46, 875 кадров/сек (1024 SPF)
    Метод сжатия : С потерями
    Размер потока : 48, 4 Мбайт (5%)
    Default : Да
    AlternateGroup/String : 1
    Общее
    Полное имя : D: TorrentMandalorain.Season1 (2019)The.Mandalorian.S01.720p.KerobThe.Mandalorian.S01E04.720p.Kerob.mp4
    Формат : MPEG-4
    Профиль формата : Base Media
    Идентификатор кодека : isom (isom/iso2/avc1/mp41)
    Размер файла : 1, 20 Гбайт
    Продолжительность : 40 м. 53 с.
    Режим общего битрейта : Постоянный
    Общий поток : 4199 Кбит/сек
    Программа кодирования : Lavf58.12.100
    Видео
    Идентификатор : 1
    Формат : AVC
    Формат/Информация : Advanced Video Codec
    Профиль формата : High@L3.1
    Настройки формата : CABAC/1 Ref Frames
    Параметр CABAC формата : Да
    Параметр RefFrames формата : 1 кадр
    Параметр GOP формата : M=1, N=25
    Идентификатор кодека : avc1
    Идентификатор кодека/Информация : Advanced Video Coding
    Продолжительность : 40 м. 53 с.
    Вид битрейта : Постоянный
    Битрейт : 4000 Кбит/сек
    Ширина : 1280 пикселей
    Высота : 532 пикселя
    Соотношение сторон : 2, 40: 1
    Режим частоты кадров : Постоянный
    Частота кадров : 23, 976 (24000/1001) кадра/сек
    Цветовое пространство : YUV
    Субдискретизация насыщенности : 4: 2: 0
    Битовая глубина : 8 бит
    Тип развёртки : Прогрессивная
    Бит/(Пиксели*Кадры) : 0.245
    Размер потока : 1, 14 Гбайт (95%)
    Codec configuration box : avcC
    Аудио
    Идентификатор : 2
    Формат : AAC LC
    Формат/Информация : Advanced Audio Codec Low Complexity
    Идентификатор кодека : mp4a-40-2
    Продолжительность : 40 м. 53 с.
    Вид битрейта : Постоянный
    Битрейт : 192 Кбит/сек
    Каналы : 2 канала
    ChannelLayout : L R
    Частота : 48, 0 КГц
    Частота кадров : 46, 875 кадров/сек (1024 SPF)
    Метод сжатия : С потерями
    Размер потока : 57, 1 Мбайт (5%)
    Default : Да
    AlternateGroup/String : 1
    Общее
    Полное имя : D: TorrentMandalorain.Season1 (2019)The.Mandalorian.S01.720p.KerobThe.Mandalorian.S01E05.720p.Kerob.mp4
    Формат : MPEG-4
    Профиль формата : Base Media
    Идентификатор кодека : isom (isom/iso2/avc1/mp41)
    Размер файла : 979 Мбайт
    Продолжительность : 32 м. 35 с.
    Режим общего битрейта : Постоянный
    Общий поток : 4199 Кбит/сек
    Дата кодирования : UTC 2019-12-06 11: 15: 57
    Дата пометки : UTC 2019-12-06 11: 15: 57
    Программа кодирования : Lavf58.12.100
    Видео
    Идентификатор : 1
    Формат : AVC
    Формат/Информация : Advanced Video Codec
    Профиль формата : High@L3.1
    Настройки формата : CABAC/1 Ref Frames
    Параметр CABAC формата : Да
    Параметр RefFrames формата : 1 кадр
    Параметр GOP формата : M=1, N=25
    Идентификатор кодека : avc1
    Идентификатор кодека/Информация : Advanced Video Coding
    Продолжительность : 32 м. 35 с.
    Вид битрейта : Постоянный
    Битрейт : 4000 Кбит/сек
    Ширина : 1280 пикселей
    Высота : 532 пикселя
    Соотношение сторон : 2, 40: 1
    Режим частоты кадров : Постоянный
    Частота кадров : 23, 976 (24000/1001) кадра/сек
    Цветовое пространство : YUV
    Субдискретизация насыщенности : 4: 2: 0
    Битовая глубина : 8 бит
    Тип развёртки : Прогрессивная
    Бит/(Пиксели*Кадры) : 0.245
    Размер потока : 932 Мбайт (95%)
    Дата кодирования : UTC 2019-12-06 11: 15: 57
    Дата пометки : UTC 2019-12-06 11: 15: 57
    Codec configuration box : avcC
    Аудио
    Идентификатор : 2
    Формат : AAC LC
    Формат/Информация : Advanced Audio Codec Low Complexity
    Идентификатор кодека : mp4a-40-2
    Продолжительность : 32 м. 35 с.
    Вид битрейта : Постоянный
    Битрейт : 192 Кбит/сек
    Каналы : 2 канала
    ChannelLayout : L R
    Частота : 48, 0 КГц
    Частота кадров : 46, 875 кадров/сек (1024 SPF)
    Метод сжатия : С потерями
    Размер потока : 45, 6 Мбайт (5%)
    Default : Да
    AlternateGroup/String : 1
    Дата кодирования : UTC 2019-12-06 11: 15: 57
    Дата пометки : UTC 2019-12-06 11: 15: 57
    Общее
    Полное имя : D: TorrentMandalorain.Season1 (2019)The.Mandalorian.S01.720p.KerobThe.Mandalorian.S01E06.720p.Kerob.mp4
    Формат : MPEG-4
    Профиль формата : Base Media
    Идентификатор кодека : isom (isom/iso2/avc1/mp41)
    Размер файла : 1, 17 Гбайт
    Продолжительность : 39 м. 59 с.
    Режим общего битрейта : Постоянный
    Общий поток : 4200 Кбит/сек
    Дата кодирования : UTC 2019-12-13 11: 39: 34
    Дата пометки : UTC 2019-12-13 11: 39: 34
    Программа кодирования : Lavf58.12.100
    Видео
    Идентификатор : 1
    Формат : AVC
    Формат/Информация : Advanced Video Codec
    Профиль формата : High@L3.1
    Настройки формата : CABAC/1 Ref Frames
    Параметр CABAC формата : Да
    Параметр RefFrames формата : 1 кадр
    Параметр GOP формата : M=1, N=25
    Идентификатор кодека : avc1
    Идентификатор кодека/Информация : Advanced Video Coding
    Продолжительность : 39 м. 59 с.
    Вид битрейта : Постоянный
    Битрейт : 4000 Кбит/сек
    Ширина : 1280 пикселей
    Высота : 532 пикселя
    Соотношение сторон : 2, 40: 1
    Режим частоты кадров : Постоянный
    Частота кадров : 23, 976 (24000/1001) кадра/сек
    Цветовое пространство : YUV
    Субдискретизация насыщенности : 4: 2: 0
    Битовая глубина : 8 бит
    Тип развёртки : Прогрессивная
    Бит/(Пиксели*Кадры) : 0.245
    Размер потока : 1, 12 Гбайт (95%)
    Дата кодирования : UTC 2019-12-13 11: 39: 34
    Дата пометки : UTC 2019-12-13 11: 39: 34
    Codec configuration box : avcC
    Аудио
    Идентификатор : 2
    Формат : AAC LC
    Формат/Информация : Advanced Audio Codec Low Complexity
    Идентификатор кодека : mp4a-40-2
    Продолжительность : 39 м. 59 с.
    Вид битрейта : Постоянный
    Битрейт : 196 Кбит/сек
    Каналы : 2 канала
    ChannelLayout : L R
    Частота : 48, 0 КГц
    Частота кадров : 46, 875 кадров/сек (1024 SPF)
    Метод сжатия : С потерями
    Размер потока : 56, 1 Мбайт (5%)
    Default : Да
    AlternateGroup/String : 1
    Дата кодирования : UTC 2019-12-13 11: 39: 34
    Дата пометки : UTC 2019-12-13 11: 39: 34
    Общее
    Полное имя : D: TorrentMandalorain.Season1 (2019)The.Mandalorian.S01.720p.KerobThe.Mandalorian.S01E07.720p.Kerob.mp4
    Формат : MPEG-4
    Профиль формата : Base Media
    Идентификатор кодека : isom (isom/iso2/avc1/mp41)
    Размер файла : 1, 07 Гбайт
    Продолжительность : 36 м. 24 с.
    Режим общего битрейта : Постоянный
    Общий поток : 4200 Кбит/сек
    Программа кодирования : Lavf58.12.100
    Видео
    Идентификатор : 1
    Формат : AVC
    Формат/Информация : Advanced Video Codec
    Профиль формата : High@L3.1
    Настройки формата : CABAC/1 Ref Frames
    Параметр CABAC формата : Да
    Параметр RefFrames формата : 1 кадр
    Параметр GOP формата : M=1, N=25
    Идентификатор кодека : avc1
    Идентификатор кодека/Информация : Advanced Video Coding
    Продолжительность : 36 м. 24 с.
    Вид битрейта : Постоянный
    Битрейт : 4000 Кбит/сек
    Ширина : 1280 пикселей
    Высота : 532 пикселя
    Соотношение сторон : 2, 40: 1
    Режим частоты кадров : Постоянный
    Частота кадров : 23, 976 (24000/1001) кадра/сек
    Цветовое пространство : YUV
    Субдискретизация насыщенности : 4: 2: 0
    Битовая глубина : 8 бит
    Тип развёртки : Прогрессивная
    Бит/(Пиксели*Кадры) : 0.245
    Размер потока : 1, 02 Гбайт (95%)
    Codec configuration box : avcC
    Аудио
    Идентификатор : 2
    Формат : AAC LC
    Формат/Информация : Advanced Audio Codec Low Complexity
    Идентификатор кодека : mp4a-40-2
    Продолжительность : 36 м. 24 с.
    Вид битрейта : Постоянный
    Битрейт : 196 Кбит/сек
    Каналы : 2 канала
    ChannelLayout : L R
    Частота : 48, 0 КГц
    Частота кадров : 46, 875 кадров/сек (1024 SPF)
    Метод сжатия : С потерями
    Размер потока : 51, 0 Мбайт (5%)
    Default : Да
    AlternateGroup/String : 1
    Общее
    Полное имя : D: TorrentMandalorain.Season1 (2019)The.Mandalorian.S01.720p.KerobThe.Mandalorian.S01E08.720p.Kerob.mp4
    Формат : MPEG-4
    Профиль формата : Base Media
    Идентификатор кодека : isom (isom/iso2/avc1/mp41)
    Размер файла : 1, 45 Гбайт
    Продолжительность : 49 м. 22 с.
    Режим общего битрейта : Постоянный
    Общий поток : 4199 Кбит/сек
    Программа кодирования : Lavf58.12.100
    Видео
    Идентификатор : 1
    Формат : AVC
    Формат/Информация : Advanced Video Codec
    Профиль формата : High@L3.1
    Настройки формата : CABAC/1 Ref Frames
    Параметр CABAC формата : Да
    Параметр RefFrames формата : 1 кадр
    Параметр GOP формата : M=1, N=25
    Идентификатор кодека : avc1
    Идентификатор кодека/Информация : Advanced Video Coding
    Продолжительность : 49 м. 22 с.
    Вид битрейта : Постоянный
    Битрейт : 4000 Кбит/сек
    Ширина : 1280 пикселей
    Высота : 532 пикселя
    Соотношение сторон : 2, 40: 1
    Режим частоты кадров : Постоянный
    Частота кадров : 23, 976 (24000/1001) кадра/сек
    Цветовое пространство : YUV
    Субдискретизация насыщенности : 4: 2: 0
    Битовая глубина : 8 бит
    Тип развёртки : Прогрессивная
    Бит/(Пиксели*Кадры) : 0.245
    Размер потока : 1, 38 Гбайт (95%)
    Codec configuration box : avcC
    Аудио
    Идентификатор : 2
    Формат : AAC LC
    Формат/Информация : Advanced Audio Codec Low Complexity
    Идентификатор кодека : mp4a-40-2
    Продолжительность : 49 м. 22 с.
    Вид битрейта : Постоянный
    Битрейт : 192 Кбит/сек
    Каналы : 2 канала
    ChannelLayout : L R
    Частота : 48, 0 КГц
    Частота кадров : 46, 875 кадров/сек (1024 SPF)
    Метод сжатия : С потерями
    Размер потока : 68, 7 Мбайт (5%)
    Default : Да
    AlternateGroup/String : 1
    Общее
    Полное имя : D: TorrentMandalorain.Season1 (2019)СэмплыThe.Mandalorian.S01E01.720p.Kerob_672_735.mp4
    Формат : MPEG-4
    Профиль формата : Base Media
    Идентификатор кодека : isom (isom)
    Размер файла : 26, 1 Мбайт
    Продолжительность : 1 м. 2 с.
    Режим общего битрейта : Переменный
    Общий поток : 3499 Кбит/сек
    Дата кодирования : UTC 2019-12-26 20: 31: 15
    Дата пометки : UTC 2019-12-26 20: 31: 15
    Видео
    Идентификатор : 1
    Формат : AVC
    Формат/Информация : Advanced Video Codec
    Профиль формата : High@L3.1
    Настройки формата : CABAC/1 Ref Frames
    Параметр CABAC формата : Да
    Параметр RefFrames формата : 1 кадр
    Параметр GOP формата : M=1, N=25
    Идентификатор кодека : avc1
    Идентификатор кодека/Информация : Advanced Video Coding
    Продолжительность : 1 м. 2 с.
    Вид битрейта : Постоянный
    Битрейт : 3300 Кбит/сек
    Ширина : 1280 пикселей
    Высота : 532 пикселя
    Соотношение сторон : 2, 40: 1
    Режим частоты кадров : Переменный
    Частота кадров : 23, 976 (24000/1001) кадра/сек
    Минимальная частота кадров : 23, 810 кадра/сек
    Максимальная частота кадров : 24, 390 кадра/сек
    Цветовое пространство : YUV
    Субдискретизация насыщенности : 4: 2: 0
    Битовая глубина : 8 бит
    Тип развёртки : Прогрессивная
    Бит/(Пиксели*Кадры) : 0.202
    Размер потока : 24, 6 Мбайт (94%)
    Дата пометки : UTC 2019-12-26 20: 31: 15
    Codec configuration box : avcC
    Аудио
    Идентификатор : 2
    Формат : AAC LC
    Формат/Информация : Advanced Audio Codec Low Complexity
    Идентификатор кодека : mp4a-40-2
    Продолжительность : 1 м. 2 с.
    Вид битрейта : Переменный
    Битрейт : 192 Кбит/сек
    Максимальный битрейт : 256 Кбит/сек
    Каналы : 2 канала
    ChannelLayout : L R
    Частота : 48, 0 КГц
    Частота кадров : 46, 875 кадров/сек (1024 SPF)
    Метод сжатия : С потерями
    Размер потока : 1, 46 Мбайт (6%)
    Default : Да
    AlternateGroup/String : 1
    Дата пометки : UTC 2019-12-26 20: 31: 15
    Скриншоты:

    Все одноименные релизы в Клубе
    Время раздачи: с 23: 00 до 8: 30 (до появления первых 3-5 скачавших) (до появления первых 3-5 скачавших)

    Мандалорец / The Mandalorian (2019) WEB-DL [H.264] (сезон 1, серии 1-8 из 8) [MP4|1280x532] Kerob [AD] торрент скачать бесплатно
    Рейтинг →
     (голосов: 1, оценка 4/5, голосовать можно 1 раз )

    Другие торренты по теме:

  • Мандалорец / Mandalorian (2019) WEBRip [H.264 / 720p-LQ] (сезон 1, серии 1-2 из 8) (обновляемая) finargot
  • Мандалорец / Mandalorian (2019) WEBRip [H.264 / 1080p] (сезон 1, серии 1-3 из 8) finargot (обновляемая)
  • Мандалорец / Mandalorian (2019) WEB-DL [H.264 / 1080p] (сезон 1 серии 1-4 из 8) Flarrow Films (обновляемая)
  • Мандалорец / The Mandalorian (2019) WEBRip [H.264 / 1080p-LQ] (сезон 1, серия 1 из 8) (обновляемая) HDRezka Studio
  • Мандалорец / The Mandalorian (2019) WEBRip [H.264 / 1080p-LQ] (сезон 1, серия 1 из 8) (обновляемая) LakeFilms [AD]
  • Мандалорец / The Mandalorian (2019) WEBRip (сезон 1, серии 1-2 из 8) (обновляемая) HDRezka Studio
  • Мандалорец / The Mandalorian (2019) WEB-DLRip (сезон 1, серия 1 из 8) Lostfilm (обновляемая)
  • Мандалорец / The Mandalorian (2019) WEB-DLRip [H.264 / 720p-LQ] (сезон 1, серии 1 из 8) AMS (обновляемая) [AD] [PR]


    • Комментарии (0):

      Информация

      Информация

        Посетители, находящиеся в группе Гости, не могут оставлять комментарии в данной новости.

        ↓ Меню




        ↓ Опрос

        Вы добавили сайт в закладки?
        Да
        Нет


        Популярное

        Карты для iGo 2019.Q2 HERE (NQ, NavTeq) Европа [25.07.2019]

        (скачиваний: 155)
        Гоголь: Начало, Вий, Месть. Трилогия (2017, 2018) HDRip [H.264] [MP4|1080p]

        (скачиваний: 144)
        Властелин Колец: Братва и кольцо / Две сорванные башни / Возвращение Бомжа (2002 / 2003 / 2004) (Трилогия) BDRip [H.264] [MP4|1920x1080] Гоблин [Пародия]

        (скачиваний: 134)
        Властелин колец: Трилогия (The Lord of the Rings: Trilogy) (Extended Cut) (2001 / 2002 / 2003) [MP4 | 960x400] <BDRip H.264>

        (скачиваний: 71)
        Кукутики: Полная коллекция / (Kukutiki: Full collection) (2015-2018) WEB-DLRip [H.264] (Серии 1-79 из 79 + Караоке версии 1-16 из 16) [MP4|1280x720]

        (скачиваний: 70)
        Начало / Inception (2010) DVDRip [MP4|640x272]

        (скачиваний: 38)
        Нереальная история. Менделеев и раствор (2012-2013) WEBRip [H.264] (серии 1-13 из 13) [MP4|720x404] [нарезка]

        (скачиваний: 32)
        NaviTel / Навител Навигатор v9.10.2281 [Ru / Multi] (Windows CE)

        (скачиваний: 32)
        Сборка iGO Primo NextGen 9.19.1.484935 WinCE [Ru / Multi] - навигационный программный комплекс для устройств с WinCE скачать через торрент бесплатно

        (скачиваний: 31)
        Разлом Сан-Андреас / San Andreas (2015) HDRip [H.264] [MP4|960х400] скачать через торрент бесплатно

        (скачиваний: 30)