.
Авторизация | Регистрация
bitok.xyz
Торрент скачать бесплатно КПК и мобильные торрент скачать Мандалорец / The Mandalorian (2019) WEBRip [H.264] (сезон 1, серии 1-8 из 8) Jaskier, HDrezka Studio, NewStudio, AlexFilm [MP4|1920x804] торрент скачать бесплатно


    Мандалорец / The Mandalorian (2019) WEBRip [H.264] (сезон 1, серии 1-8 из 8) Jaskier, HDrezka Studio, NewStudio, AlexFilm [MP4|1920x804] торрент скачать бесплатно

    Дата: 3-01-2020, 05:00 | .torrent скачали: 29

    Мандалорец / The Mandalorian (2019) WEBRip [H.264] (сезон 1, серии 1-8 из 8) Jaskier, HDrezka Studio, NewStudio, AlexFilm [MP4|1920x804]Производство: США | Lucasfilm, Walt Disney Studios
    Жанр: фантастика, боевик, приключения
    Режиссер: Режиссер: Дебора Чоу, Рик Фамуйива, Дэйв Филони
    Актеры: Педро Паскаль, Кайл Пацек, Брендан Уэйн, Бернард Баллен, Александра Гилман, Тейт Флетчер, Омид Абтахи

    Описание

    Одинокий мандалорец-наёмник живёт на краю обитаемой галактики, куда не дотягивается закон Новой Республики. Представитель некогда могучей расы благородных воинов теперь вынужден влачить жалкое существование среди отбросов общества.

    Возраст: этот продукт не был классифицирован
    Рейтинг MPAA: этот продукт не был классифицирован
    Дата мировой премьеры: 12 ноября 2019 года
    Продолжительность: ~00: 40: 00 серия
    Качество видео: WEBRip
    Перевод: Многоголосый профессиональный
    Субтитры: русские, английские
    Реклама: отсутствует
    Видео: AVC/H.264, 1920х804 ~3456 kbps
    Аудио #1: AAC, 2 ch, 160 kbps, русский, (Jaskier)
    Аудио #2: AAC, 2 ch, 160 kbps, русский, (HDrezka Studio)
    Аудио #3: AAC, 2 ch, 160 kbps, русский, (NewStudio)
    Аудио #4: AAC, 2 ch, 160 kbps, русский, (AlexFilm)
    Аудио #5: AAC, 2 ch, 384 kbps, английский, (оригинальный)
    Общее
    Полное имя : The.MandalorianThe.Mandalorian.S01E01.Chapter.1.mp4
    Формат : MPEG-4
    Профиль формата : Base Media/Version 2
    Идентификатор кодека : mp42 (isom/iso2/avc1/mp41)
    Размер файла : 1, 16 Гбайт
    Продолжительность : 38 м. 46 с.
    Режим общего битрейта : Переменный
    Общий поток : 4276 Кбит/сек
    Название фильма : The.Mandalorian.S01E01.Chapter.1.The.MandalorianNNM-Club.rip.by.alien.09
    Дата кодирования : UTC 2019-12-29 03: 24: 41
    Дата пометки : UTC 2019-12-29 03: 24: 41
    Программа кодирования : HandBrake 1.3.0 2019110900
    Видео
    Идентификатор : 1
    Формат : AVC
    Формат/Информация : Advanced Video Codec
    Профиль формата : Main@L4
    Настройки формата : CABAC/4 Ref Frames
    Параметр CABAC формата : Да
    Параметр RefFrames формата : 4 кадра
    Идентификатор кодека : avc1
    Идентификатор кодека/Информация : Advanced Video Coding
    Продолжительность : 38 м. 46 с.
    Битрейт : 3456 Кбит/сек
    Ширина : 1920 пикселей
    Высота : 804 пикселя
    Соотношение сторон : 2, 40: 1
    Режим частоты кадров : Переменный
    Частота кадров : 23, 976 (24000/1001) кадра/сек
    Минимальная частота кадров : 23, 974 кадра/сек
    Максимальная частота кадров : 23, 981 кадра/сек
    Цветовое пространство : YUV
    Субдискретизация насыщенности : 4: 2: 0
    Битовая глубина : 8 бит
    Тип развёртки : Прогрессивная
    Бит/(Пиксели*Кадры) : 0.093
    Размер потока : 959 Мбайт (81%)
    Библиотека кодирования : x264 core 157 r2935 545de2f
    Настройки программы : cabac=1/ref=3/deblock=1: -1: -1/analyse=0x1: 0x111/me=hex/subme=7/psy=1/psy_rd=1.00: 0.15/mixed_ref=1/me_range=16/chroma_me=1/trellis=1/8x8dct=0/cqm=0/deadzone=21, 11/fast_pskip=1/chroma_qp_offset=-3/threads=18/lookahead_threads=3/sliced_threads=0/nr=0/decimate=1/interlaced=0/bluray_compat=0/constrained_intra=0/bframes=3/b_pyramid=2/b_adapt=1/b_bias=0/direct=1/weightb=1/open_gop=0/weightp=2/keyint=240/keyint_min=24/scenecut=40/intra_refresh=0/rc_lookahead=40/rc=2pass/mbtree=1/bitrate=3456/ratetol=1.0/qcomp=0.60/qpmin=0/qpmax=69/qpstep=4/cplxblur=20.0/qblur=0.5/vbv_maxrate=20000/vbv_bufsize=25000/nal_hrd=none/filler=0/ip_ratio=1.40/aq=1: 1.00
    Дата кодирования : UTC 2019-12-29 03: 24: 41
    Дата пометки : UTC 2019-12-29 03: 24: 41
    Цветовой диапазон : Limited
    Основные цвета : BT.709
    Характеристики трансфера : BT.709
    Коэффициенты матрицы : BT.709
    Codec configuration box : avcC
    Аудио #1
    Идентификатор : 2
    Формат : AAC LC
    Формат/Информация : Advanced Audio Codec Low Complexity
    Идентификатор кодека : mp4a-40-2
    Продолжительность : 38 м. 46 с.
    Вид битрейта : Постоянный
    Битрейт : 160 Кбит/сек
    Каналы : 2 канала
    ChannelLayout : L R
    Частота : 48, 0 КГц
    Частота кадров : 46, 875 кадров/сек (1024 SPF)
    Метод сжатия : С потерями
    Размер потока : 44, 4 Мбайт (4%)
    Заголовок : Stereo
    Язык : Russian
    Default : Да
    AlternateGroup/String : 1
    Дата кодирования : UTC 2019-12-29 03: 24: 41
    Дата пометки : UTC 2019-12-29 03: 24: 41
    Аудио #2
    Идентификатор : 3
    Формат : AAC LC
    Формат/Информация : Advanced Audio Codec Low Complexity
    Идентификатор кодека : mp4a-40-2
    Продолжительность : 38 м. 46 с.
    Вид битрейта : Постоянный
    Битрейт : 160 Кбит/сек
    Каналы : 2 канала
    ChannelLayout : L R
    Частота : 48, 0 КГц
    Частота кадров : 46, 875 кадров/сек (1024 SPF)
    Метод сжатия : С потерями
    Размер потока : 44, 3 Мбайт (4%)
    Заголовок : Stereo
    Язык : Russian
    Default : Нет
    AlternateGroup/String : 1
    Дата кодирования : UTC 2019-12-29 03: 24: 41
    Дата пометки : UTC 2019-12-29 03: 24: 41
    Аудио #3
    Идентификатор : 4
    Формат : AAC LC
    Формат/Информация : Advanced Audio Codec Low Complexity
    Идентификатор кодека : mp4a-40-2
    Продолжительность : 38 м. 46 с.
    Вид битрейта : Постоянный
    Битрейт : 160 Кбит/сек
    Каналы : 2 канала
    ChannelLayout : L R
    Частота : 48, 0 КГц
    Частота кадров : 46, 875 кадров/сек (1024 SPF)
    Метод сжатия : С потерями
    Размер потока : 44, 4 Мбайт (4%)
    Заголовок : Stereo
    Язык : Russian
    Default : Нет
    AlternateGroup/String : 1
    Дата кодирования : UTC 2019-12-29 03: 24: 41
    Дата пометки : UTC 2019-12-29 03: 24: 41
    Аудио #4
    Идентификатор : 5
    Формат : AAC LC
    Формат/Информация : Advanced Audio Codec Low Complexity
    Идентификатор кодека : mp4a-40-2
    Продолжительность : 38 м. 46 с.
    Вид битрейта : Постоянный
    Битрейт : 160 Кбит/сек
    Каналы : 2 канала
    ChannelLayout : L R
    Частота : 48, 0 КГц
    Частота кадров : 46, 875 кадров/сек (1024 SPF)
    Метод сжатия : С потерями
    Размер потока : 44, 4 Мбайт (4%)
    Заголовок : Stereo
    Язык : Russian
    Default : Нет
    AlternateGroup/String : 1
    Дата кодирования : UTC 2019-12-29 03: 24: 41
    Дата пометки : UTC 2019-12-29 03: 24: 41
    Аудио #5
    Идентификатор : 6
    Формат : AAC LC
    Формат/Информация : Advanced Audio Codec Low Complexity
    Идентификатор кодека : mp4a-40-2
    Продолжительность : 38 м. 46 с.
    Вид битрейта : Постоянный
    Битрейт : 160 Кбит/сек
    Каналы : 2 канала
    ChannelLayout : L R
    Частота : 48, 0 КГц
    Частота кадров : 46, 875 кадров/сек (1024 SPF)
    Метод сжатия : С потерями
    Размер потока : 44, 2 Мбайт (4%)
    Заголовок : Stereo
    Язык : English
    Default : Нет
    AlternateGroup/String : 1
    Дата кодирования : UTC 2019-12-29 03: 24: 41
    Дата пометки : UTC 2019-12-29 03: 24: 41
    Текст #1
    Идентификатор : 7
    Формат : Timed Text
    Режим смешивания : sbtl
    Идентификатор кодека : tx3g
    Продолжительность : 36 м. 18 с.
    Вид битрейта : Переменный
    Битрейт : 81 бит/сек
    Размер потока : 21, 4 Кбайт (0%)
    Язык : Russian
    Default : Да
    Forced : Нет
    AlternateGroup/String : 3
    Дата кодирования : UTC 2019-12-29 03: 24: 41
    Дата пометки : UTC 2019-12-29 03: 24: 41
    Текст #2
    Идентификатор : 8
    Формат : Timed Text
    Режим смешивания : sbtl
    Идентификатор кодека : tx3g
    Продолжительность : 35 м. 45 с.
    Вид битрейта : Переменный
    Битрейт : 57 бит/сек
    Размер потока : 15, 0 Кбайт (0%)
    Язык : English
    Default : Нет
    Forced : Нет
    AlternateGroup/String : 3
    Дата кодирования : UTC 2019-12-29 03: 24: 41
    Дата пометки : UTC 2019-12-29 03: 24: 41


    Мандалорец / The Mandalorian (2019) WEBRip [H.264] (сезон 1, серии 1-8 из 8) Jaskier, HDrezka Studio, NewStudio, AlexFilm [MP4|1920x804] торрент скачать бесплатно
    Рейтинг →
     (голосов: 1, оценка 4/5, голосовать можно 1 раз )

    Другие торренты по теме:

  • Мандалорец / Mandalorian (2019) WEBRip [H.264 / 720p-LQ] (сезон 1, серии 1-2 из 8) (обновляемая) finargot
  • Мандалорец / Mandalorian (2019) WEBRip [H.264 / 1080p] (сезон 1, серии 1-3 из 8) finargot (обновляемая)
  • Мандалорец / Mandalorian (2019) WEB-DL [H.264 / 1080p] (сезон 1 серии 1-4 из 8) Flarrow Films (обновляемая)
  • Мандалорец / The Mandalorian (2019) WEBRip [H.264 / 1080p-LQ] (сезон 1, серия 1 из 8) (обновляемая) HDRezka Studio
  • Мандалорец / The Mandalorian (2019) WEBRip [H.264 / 1080p-LQ] (сезон 1, серия 1 из 8) (обновляемая) LakeFilms [AD]
  • Мандалорец / The Mandalorian (2019) WEBRip (сезон 1, серии 1-2 из 8) (обновляемая) HDRezka Studio
  • Мандалорец / The Mandalorian (2019) WEB-DLRip (сезон 1, серия 1 из 8) Lostfilm (обновляемая)
  • Мандалорец / The Mandalorian (2019) WEB-DLRip [H.264 / 720p-LQ] (сезон 1, серии 1 из 8) AMS (обновляемая) [AD] [PR]


    • Комментарии (0):

      Информация

      Информация

        Посетители, находящиеся в группе Гости, не могут оставлять комментарии в данной новости.

        ↓ Меню




        ↓ Опрос

        Вы добавили сайт в закладки?
        Да
        Нет


        Популярное

        Карты для iGo 2019.Q2 HERE (NQ, NavTeq) Европа [25.07.2019]

        (скачиваний: 155)
        Гоголь: Начало, Вий, Месть. Трилогия (2017, 2018) HDRip [H.264] [MP4|1080p]

        (скачиваний: 144)
        Властелин Колец: Братва и кольцо / Две сорванные башни / Возвращение Бомжа (2002 / 2003 / 2004) (Трилогия) BDRip [H.264] [MP4|1920x1080] Гоблин [Пародия]

        (скачиваний: 134)
        Властелин колец: Трилогия (The Lord of the Rings: Trilogy) (Extended Cut) (2001 / 2002 / 2003) [MP4 | 960x400] <BDRip H.264>

        (скачиваний: 71)
        Кукутики: Полная коллекция / (Kukutiki: Full collection) (2015-2018) WEB-DLRip [H.264] (Серии 1-79 из 79 + Караоке версии 1-16 из 16) [MP4|1280x720]

        (скачиваний: 70)
        Начало / Inception (2010) DVDRip [MP4|640x272]

        (скачиваний: 38)
        Нереальная история. Менделеев и раствор (2012-2013) WEBRip [H.264] (серии 1-13 из 13) [MP4|720x404] [нарезка]

        (скачиваний: 32)
        NaviTel / Навител Навигатор v9.10.2281 [Ru / Multi] (Windows CE)

        (скачиваний: 32)
        Разлом Сан-Андреас / San Andreas (2015) HDRip [H.264] [MP4|960х400] скачать через торрент бесплатно

        (скачиваний: 30)
        Сборка iGO Primo NextGen 9.19.1.484935 WinCE [Ru / Multi] - навигационный программный комплекс для устройств с WinCE скачать через торрент бесплатно

        (скачиваний: 29)