.
Авторизация | Регистрация
bitok.xyz
Торрент скачать бесплатно КПК и мобильные торрент скачать Ведьмак / The Witcher (2019) WEBRip [H.264] (сезон 1, серии 1-8 из 8) Пифагор, Jaskier, NewStudio, HDrezka Studio [MP4|1920x960] торрент скачать бесплатно


    Ведьмак / The Witcher (2019) WEBRip [H.264] (сезон 1, серии 1-8 из 8) Пифагор, Jaskier, NewStudio, HDrezka Studio [MP4|1920x960] торрент скачать бесплатно

    Дата: 6-01-2020, 05:00 | .torrent скачали: 20

    Ведьмак / The Witcher (2019) WEBRip [H.264] (сезон 1, серии 1-8 из 8) Пифагор, Jaskier, NewStudio, HDrezka Studio [MP4|1920x960]Производство: США, Польша | NetFlix, Pioneer Stilking Films, Platige Image, Sean Daniel Company
    Жанр: фэнтези, боевик, драма, приключения
    Режиссер: Алик Сахаров, Шарлотта Брандстром, Алекс Гарсиа Лопес
    Актеры: Генри Кавилл, Фрейя Аллан, Джои Бэти, МайАнна Бёринг, Том Кэнтон, Аня Чалотра, Имон Фэррен, Бьерн Хлинур Харальдссон, Адам Леви, Джоди Мэй

    Описание

    Ведьмак Геральт, мутант и убийца чудовищ, на своей верной лошади по кличке Плотва путешествует по Континенту. За тугой мешочек чеканных монет этот мужчина избавит вас от всякой настырной нечисти — хоть от чудищ болотных, оборотней и даже заколдованных принцесс. В сельской глуши местную девушку Йеннифэр, которой сильно не повезло с внешностью, зато посчастливилось иметь способности к магии, отец продаёт колдунье в ученицы. А малолетняя наследница королевства Цинтра по имени Цири вынуждена пуститься в бега, когда их страну захватывает империя Нильфгаард. Судьбы этих троих окажутся тесно связаны, но скоро сказка сказывается, да не скоро дело делается...

    Возраст: этот продукт не был классифицирован
    Рейтинг MPAA: этот продукт не был классифицирован
    Дата мировой премьеры: 20 декабря 2019
    Продолжительность: ~01: 00: 00 серия
    Качество видео: WEBRip
    Перевод: дублированный, многоголосый профессиональный
    Субтитры: русские, английские
    Реклама: отсутствует
    Видео: AVC/H.264, 1920х960, ~3456 Kbps
    Аудио #1: AAC, 2 ch, 160 Kbps, русский, (студия Пифагор)
    Аудио #2: AAC, 2 ch, 160 kbps, русский, (Jaskier)
    Аудио #3: AAC, 2 ch, 160 kbps, русский, (NewStudio)
    Аудио #4: AAC, 2 ch, 160 kbps, русский, (HDRezka Studio)
    Аудио #5: AAC, 2 ch, 384 kbps, английский
    Общее
    Полное имя : The.Witcher.S01E01.The.End’s.Beginning.mp4
    Формат : MPEG-4
    Профиль формата : Base Media/Version 2
    Идентификатор кодека : mp42 (isom/iso2/avc1/mp41)
    Размер файла : 1, 82 Гбайт
    Продолжительность : 1 ч. 1 м.
    Режим общего битрейта : Переменный
    Общий поток : 4268 Кбит/сек
    Название фильма : The.Witcher.S01E01.The.End’s.BeginningNNM-Club.rip.by.alien.09
    Дата кодирования : UTC 2020-01-03 23: 28: 44
    Дата пометки : UTC 2020-01-03 23: 28: 44
    Программа кодирования : HandBrake 1.3.0 2019110900
    Видео
    Идентификатор : 1
    Формат : AVC
    Формат/Информация : Advanced Video Codec
    Профиль формата : Main@L4.1
    Настройки формата : CABAC/4 Ref Frames
    Параметр CABAC формата : Да
    Параметр RefFrames формата : 4 кадра
    Идентификатор кодека : avc1
    Идентификатор кодека/Информация : Advanced Video Coding
    Продолжительность : 1 ч. 1 м.
    Битрейт : 3456 Кбит/сек
    Ширина : 1920 пикселей
    Высота : 960 пикселей
    Соотношение сторон : 2, 000
    Режим частоты кадров : Переменный
    Частота кадров : 23, 976 кадра/сек
    Минимальная частота кадров : 23, 810 кадра/сек
    Максимальная частота кадров : 23, 981 кадра/сек
    Цветовое пространство : YUV
    Субдискретизация насыщенности : 4: 2: 0
    Битовая глубина : 8 бит
    Тип развёртки : Прогрессивная
    Бит/(Пиксели*Кадры) : 0.078
    Размер потока : 1, 48 Гбайт (81%)
    Библиотека кодирования : x264 core 157 r2935 545de2f
    Настройки программы : cabac=1/ref=3/deblock=1: -1: -1/analyse=0x1: 0x111/me=hex/subme=7/psy=1/psy_rd=1.00: 0.15/mixed_ref=1/me_range=16/chroma_me=1/trellis=1/8x8dct=0/cqm=0/deadzone=21, 11/fast_pskip=1/chroma_qp_offset=-3/threads=18/lookahead_threads=3/sliced_threads=0/nr=0/decimate=1/interlaced=0/bluray_compat=0/constrained_intra=0/bframes=3/b_pyramid=2/b_adapt=1/b_bias=0/direct=1/weightb=1/open_gop=0/weightp=2/keyint=240/keyint_min=24/scenecut=40/intra_refresh=0/rc_lookahead=40/rc=2pass/mbtree=1/bitrate=3456/ratetol=1.0/qcomp=0.60/qpmin=0/qpmax=69/qpstep=4/cplxblur=20.0/qblur=0.5/vbv_maxrate=50000/vbv_bufsize=62500/nal_hrd=none/filler=0/ip_ratio=1.40/aq=1: 1.00
    Дата кодирования : UTC 2020-01-03 23: 28: 44
    Дата пометки : UTC 2020-01-03 23: 28: 44
    Цветовой диапазон : Limited
    Основные цвета : BT.709
    Характеристики трансфера : BT.709
    Коэффициенты матрицы : BT.709
    Codec configuration box : avcC
    Аудио #1
    Идентификатор : 2
    Формат : AAC LC
    Формат/Информация : Advanced Audio Codec Low Complexity
    Идентификатор кодека : mp4a-40-2
    Продолжительность : 1 ч. 0 м.
    Вид битрейта : Постоянный
    Битрейт : 160 Кбит/сек
    Каналы : 2 канала
    ChannelLayout : L R
    Частота : 48, 0 КГц
    Частота кадров : 46, 875 кадров/сек (1024 SPF)
    Метод сжатия : С потерями
    Размер потока : 69, 2 Мбайт (4%)
    Заголовок : Stereo
    Язык : Russian
    Default : Да
    AlternateGroup/String : 1
    Дата кодирования : UTC 2020-01-03 23: 28: 44
    Дата пометки : UTC 2020-01-03 23: 28: 44
    Аудио #2
    Идентификатор : 3
    Формат : AAC LC
    Формат/Информация : Advanced Audio Codec Low Complexity
    Идентификатор кодека : mp4a-40-2
    Продолжительность : 1 ч. 0 м.
    Вид битрейта : Постоянный
    Битрейт : 160 Кбит/сек
    Каналы : 2 канала
    ChannelLayout : L R
    Частота : 48, 0 КГц
    Частота кадров : 46, 875 кадров/сек (1024 SPF)
    Метод сжатия : С потерями
    Размер потока : 69, 1 Мбайт (4%)
    Заголовок : Stereo
    Язык : Russian
    Default : Нет
    AlternateGroup/String : 1
    Дата кодирования : UTC 2020-01-03 23: 28: 44
    Дата пометки : UTC 2020-01-03 23: 28: 44
    Аудио #3
    Идентификатор : 4
    Формат : AAC LC
    Формат/Информация : Advanced Audio Codec Low Complexity
    Идентификатор кодека : mp4a-40-2
    Продолжительность : 1 ч. 0 м.
    Вид битрейта : Постоянный
    Битрейт : 161 Кбит/сек
    Каналы : 2 канала
    ChannelLayout : L R
    Частота : 48, 0 КГц
    Частота кадров : 46, 875 кадров/сек (1024 SPF)
    Метод сжатия : С потерями
    Размер потока : 69, 2 Мбайт (4%)
    Заголовок : Stereo
    Язык : Russian
    Default : Нет
    AlternateGroup/String : 1
    Дата кодирования : UTC 2020-01-03 23: 28: 44
    Дата пометки : UTC 2020-01-03 23: 28: 44
    Аудио #4
    Идентификатор : 5
    Формат : AAC LC
    Формат/Информация : Advanced Audio Codec Low Complexity
    Идентификатор кодека : mp4a-40-2
    Продолжительность : 1 ч. 0 м.
    Вид битрейта : Постоянный
    Битрейт : 160 Кбит/сек
    Каналы : 2 канала
    ChannelLayout : L R
    Частота : 48, 0 КГц
    Частота кадров : 46, 875 кадров/сек (1024 SPF)
    Метод сжатия : С потерями
    Размер потока : 69, 1 Мбайт (4%)
    Заголовок : Stereo
    Язык : Russian
    Default : Нет
    AlternateGroup/String : 1
    Дата кодирования : UTC 2020-01-03 23: 28: 44
    Дата пометки : UTC 2020-01-03 23: 28: 44
    Аудио #5
    Идентификатор : 6
    Формат : AAC LC
    Формат/Информация : Advanced Audio Codec Low Complexity
    Идентификатор кодека : mp4a-40-2
    Продолжительность : 1 ч. 0 м.
    Вид битрейта : Постоянный
    Битрейт : 160 Кбит/сек
    Каналы : 2 канала
    ChannelLayout : L R
    Частота : 48, 0 КГц
    Частота кадров : 46, 875 кадров/сек (1024 SPF)
    Метод сжатия : С потерями
    Размер потока : 69, 2 Мбайт (4%)
    Заголовок : Stereo
    Язык : English
    Default : Нет
    AlternateGroup/String : 1
    Дата кодирования : UTC 2020-01-03 23: 28: 44
    Дата пометки : UTC 2020-01-03 23: 28: 44
    Текст #1
    Идентификатор : 7
    Формат : Timed Text
    Режим смешивания : sbtl
    Идентификатор кодека : tx3g
    Продолжительность : 1 ч. 0 м.
    Вид битрейта : Переменный
    Битрейт : 100 бит/сек
    Размер потока : 43, 8 Кбайт (0%)
    Язык : Russian
    Default : Да
    Forced : Нет
    AlternateGroup/String : 3
    Дата кодирования : UTC 2020-01-03 23: 28: 44
    Дата пометки : UTC 2020-01-03 23: 28: 44
    Текст #2
    Идентификатор : 8
    Формат : Timed Text
    Режим смешивания : sbtl
    Идентификатор кодека : tx3g
    Продолжительность : 58 м. 42 с.
    Вид битрейта : Переменный
    Битрейт : 90 бит/сек
    Размер потока : 38, 8 Кбайт (0%)
    Язык : English
    Default : Нет
    Forced : Нет
    AlternateGroup/String : 3
    Дата кодирования : UTC 2020-01-03 23: 28: 44
    Дата пометки : UTC 2020-01-03 23: 28: 44


    Ведьмак / The Witcher (2019) WEBRip [H.264] (сезон 1, серии 1-8 из 8) Пифагор, Jaskier, NewStudio, HDrezka Studio [MP4|1920x960] торрент скачать бесплатно
    Рейтинг →
     (голосов: 1, оценка 3/5, голосовать можно 1 раз )

    Другие торренты по теме:

  • Ведьмак 3: Дикая охота / The Witcher 3: Wild Hunt (2014) WEBRip [En]
  • The Witcher 2: Assassins of Kings / Ведьмак 2: Убийцы Королей (2011) GamePlayRip
  • The Witcher 2: Assassins of Kings / Ведьмак 2: Убийцы королей (2011) [Ru / Multi] (3.4.4.1) RePack R.G. Catalyst [Enhanced Edition] скачать через торрент бесплатно
  • Ведьмак 3: Дикая Охота / The Witcher 3: Wild Hunt (2015) [Ru / En] (1.03 / dlc) Repack R.G. Games скачать через торрент бесплатно
  • The Witcher 3: Wild Hunt / Ведьмак 3: Дикая Охота [Patch] (2015) (1.06) Official GOG скачать через торрент бесплатно
  • The Witcher 3: Wild Hunt / Ведьмак 3: Дикая Охота (2015) [Ru / Multi] (1.06 / dlc) License GOG скачать через торрент бесплатно
  • The Witcher 3: Wild Hunt / Ведьмак 3: Дикая Охота (2015) [Ru / Multi] (1.06 / dlc) Repack =nemos= скачать через торрент бесплатно
  • The Witcher / Ведьмак (2007) [Ru / Multi] (1.5.0.1304) Repack october2 [Enhanced Edition: Directors Cut / Полное издание] (GOG) скачать через торрент бесплатно


    • Комментарии (0):

      Информация

      Информация

        Посетители, находящиеся в группе Гости, не могут оставлять комментарии в данной новости.

        ↓ Меню




        ↓ Опрос

        Вы добавили сайт в закладки?
        Да
        Нет


        Популярное

        Карты для iGo 2019.Q2 HERE (NQ, NavTeq) Европа [25.07.2019]

        (скачиваний: 152)
        Гоголь: Начало, Вий, Месть. Трилогия (2017, 2018) HDRip [H.264] [MP4|1080p]

        (скачиваний: 144)
        Властелин Колец: Братва и кольцо / Две сорванные башни / Возвращение Бомжа (2002 / 2003 / 2004) (Трилогия) BDRip [H.264] [MP4|1920x1080] Гоблин [Пародия]

        (скачиваний: 134)
        Властелин колец: Трилогия (The Lord of the Rings: Trilogy) (Extended Cut) (2001 / 2002 / 2003) [MP4 | 960x400] <BDRip H.264>

        (скачиваний: 71)
        Кукутики: Полная коллекция / (Kukutiki: Full collection) (2015-2018) WEB-DLRip [H.264] (Серии 1-79 из 79 + Караоке версии 1-16 из 16) [MP4|1280x720]

        (скачиваний: 70)
        Начало / Inception (2010) DVDRip [MP4|640x272]

        (скачиваний: 38)
        Нереальная история. Менделеев и раствор (2012-2013) WEBRip [H.264] (серии 1-13 из 13) [MP4|720x404] [нарезка]

        (скачиваний: 32)
        NaviTel / Навител Навигатор v9.10.2281 [Ru / Multi] (Windows CE)

        (скачиваний: 32)
        Разлом Сан-Андреас / San Andreas (2015) HDRip [H.264] [MP4|960х400] скачать через торрент бесплатно

        (скачиваний: 30)
        Сборка iGO Primo NextGen 9.19.1.484935 WinCE [Ru / Multi] - навигационный программный комплекс для устройств с WinCE скачать через торрент бесплатно

        (скачиваний: 29)