.
Авторизация | Регистрация
bitok.xyz
Торрент скачать бесплатно КПК и мобильные торрент скачать Кролик Джоджо / Jojo Rabbit (2019) DVDScr [H.264] [MP4|1280x720] [DVO] [PR] торрент скачать бесплатно


    Кролик Джоджо / Jojo Rabbit (2019) DVDScr [H.264] [MP4|1280x720] [DVO] [PR] торрент скачать бесплатно

    Дата: 17-01-2020, 05:00 | .torrent скачали: 2

    Кролик Джоджо / Jojo Rabbit (2019) DVDScr [H.264] [MP4|1280x720] [DVO] [PR]Производство: Чехия, США, Новая Зеландия/Czech Anglo Productions, Defender Films, Piki Films, TSG Entertainment
    Жанр: Драма, комедия, военный
    Режиссер: Тайка Вайтити
    Продюсер: Кэртхью Нил, Тайка Вайтити, Челси Уинстэнли, Кеван Ван Томпсон
    Актеры: Роман Гриффин Дэвис, Томасин МакКензи, Скарлетт Йоханссон, Тайка Вайтити, Сэм Рокуэлл, Ребел Уилсон, Алфи Аллен, Стивен Мерчант, Арчи Йейтс, Люк Шуфилд

    Описание

    Неловкий и нескладный 10-летний немецкий мальчик, потерявший отца, пытается найти своё место в непривычном мире. Ровесники лишь потешаются над ним, а мама считает, что ребёнок сам придумывает себе проблемы. В надежде получить замену пропавшего отца мальчик придумывает себе воображаемого друга — Адольфа Гитлера, который совсем не похож на знакомого всем фюрера Третьего рейха. Ситуация только осложняется, когда мальчик обнаруживает, что его мать прячет в доме еврейскую девочку.

    Рейтинг MPAA: PG-13 (детям до 13 лет просмотр нежелателен)
    Дата мировой премьеры: 8 сентября 2019
    Релиз от: McElroy
    Продолжительность: 01: 48: 36
    Качество видео: DVDScr
    Перевод: Двуголосый любительский (McElroy, Корш)
    Субтитры: отсутствуют
    Видео: AVC/H.264, 1280x720, ~8600 Kbps
    Аудио: AAC, 2 ch, 128 Kbps - Русский (DVO)General
    Complete name : F: Кролик Джоджо 720 McElroy.mp4
    Format : MPEG-4
    Format profile : Base Media/Version 2
    Codec ID : mp42 (mp41/mp42/isom)
    File size : 6.62 GiB
    Duration : 1 h 48 min
    Overall bit rate mode : Variable
    Overall bit rate : 8 722 kb/s
    Movie name : Кролик Джоджо
    Encoded date : UTC 2020-01-11 20: 19: 59
    Tagged date : UTC 2020-01-11 21: 16: 49
    thmb : яШяа
    Video
    ID : 2
    Format : AVC
    Format/Info : Advanced Video Codec
    Format profile : High@L3.1
    Format settings : CABAC/2 Ref Frames
    Format settings, CABAC : Yes
    Format settings, ReFrames : 2 frames
    Format settings, GOP : M=1, N=30
    Codec ID : avc1
    Codec ID/Info : Advanced Video Coding
    Duration : 1 h 48 min
    Bit rate mode : Variable
    Bit rate : 8 594 kb/s
    Maximum bit rate : 768 kb/s
    Width : 1 280 pixels
    Height : 720 pixels
    Display aspect ratio : 16: 9
    Frame rate mode : Constant
    Frame rate : 23.976 (24000/1001) FPS
    Color space : YUV
    Chroma subsampling : 4: 2: 0
    Bit depth : 8 bits
    Scan type : Progressive
    Bits/(Pixel*Frame) : 0.389
    Stream size : 6.52 GiB (99%)
    Title : Core Media Video
    Encoded date : UTC 2020-01-11 20: 19: 59
    Tagged date : UTC 2020-01-11 21: 16: 49
    Color range : Limited
    Color primaries : BT.709
    Transfer characteristics : BT.709
    Matrix coefficients : BT.709
    Codec configuration box : avcC
    Audio
    ID : 1
    Format : AAC
    Format/Info : Advanced Audio Codec
    Format profile : LC
    Codec ID : mp4a-40-2
    Duration : 1 h 48 min
    Source duration : 1 h 48 min
    Bit rate mode : Constant
    Bit rate : 128 kb/s
    Channel(s) : 2 channels
    Channel positions : Front: L R
    Sampling rate : 48.0 kHz
    Frame rate : 46.875 FPS (1024 SPF)
    Compression mode : Lossy
    Stream size : 96.1 MiB (1%)
    Source stream size : 96.1 MiB (1%)
    Title : Core Media Audio
    Language : Russian
    Encoded date : UTC 2020-01-11 20: 19: 59
    Tagged date : UTC 2020-01-11 21: 16: 49
    Скриншоты:



    Все одноименные релизы в Клубе
    Время раздачи: с 12: 00 до 00: 00 (до появления первых 3-5 скачавших)

    Кролик Джоджо / Jojo Rabbit (2019) DVDScr [H.264] [MP4|1280x720] [DVO] [PR] торрент скачать бесплатно
    Рейтинг →
     (голосов: 1, оценка 5/5, голосовать можно 1 раз )

    Другие торренты по теме:

  • Кролик Джоджо / Jojo Rabbit (2019) DVDScr [MVO] [AD]
  • Кролик Джоджо / Jojo Rabbit (2019) DVDScr [MVO]
  • Кролик Джоджо / Jojo Rabbit (2019) DVDScr [H.264 / 720p-LQ] [DVO]
  • Кролик Джоджо / Jojo Rabbit (2019) DVDScr [H.264 / 720p-LQ] [MVO] [PR]
  • Кролик Джоджо / Jojo Rabbit (2019) AC3 5.1 HDRezka studio [hand made]
  • Кролик Джоджо / Jojo Rabbit (2019) WEB-DL [H.264 / 720p] [MVO]
  • Кролик Джоджо / Jojo Rabbit (2019) WEB-DLRip [H.265] [10-bit]
  • Кролик Джоджо / Jojo Rabbit (2019) WEB-DL [H.264 / 1080p] [MVO]


    • Комментарии (0):

      Информация

      Информация

        Посетители, находящиеся в группе Гости, не могут оставлять комментарии в данной новости.

        ↓ Меню




        ↓ Опрос

        Вы добавили сайт в закладки?
        Да
        Нет


        Популярное

        Гоголь: Начало, Вий, Месть. Трилогия (2017, 2018) HDRip [H.264] [MP4|1080p]

        (скачиваний: 144)
        Карты для iGo 2019.Q2 HERE (NQ, NavTeq) Европа [25.07.2019]

        (скачиваний: 143)
        Властелин Колец: Братва и кольцо / Две сорванные башни / Возвращение Бомжа (2002 / 2003 / 2004) (Трилогия) BDRip [H.264] [MP4|1920x1080] Гоблин [Пародия]

        (скачиваний: 131)
        Властелин колец: Трилогия (The Lord of the Rings: Trilogy) (Extended Cut) (2001 / 2002 / 2003) [MP4 | 960x400] <BDRip H.264>

        (скачиваний: 71)
        Кукутики: Полная коллекция / (Kukutiki: Full collection) (2015-2018) WEB-DLRip [H.264] (Серии 1-79 из 79 + Караоке версии 1-16 из 16) [MP4|1280x720]

        (скачиваний: 70)
        Начало / Inception (2010) DVDRip [MP4|640x272]

        (скачиваний: 38)
        Нереальная история. Менделеев и раствор (2012-2013) WEBRip [H.264] (серии 1-13 из 13) [MP4|720x404] [нарезка]

        (скачиваний: 32)
        Разлом Сан-Андреас / San Andreas (2015) HDRip [H.264] [MP4|960х400] скачать через торрент бесплатно

        (скачиваний: 30)
        NaviTel / Навител Навигатор v9.10.2281 [Ru / Multi] (Windows CE)

        (скачиваний: 29)
        Сборка iGO Primo NextGen 9.19.1.484935 WinCE [Ru / Multi] - навигационный программный комплекс для устройств с WinCE скачать через торрент бесплатно

        (скачиваний: 28)