.
Авторизация | Регистрация
bitok.xyz
Торрент скачать бесплатно КПК и мобильные торрент скачать Олень / The Deer (2020) WEB-DL [H.264] [MP4|1920x1080] [EN] торрент скачать бесплатно


    Олень / The Deer (2020) WEB-DL [H.264] [MP4|1920x1080] [EN] торрент скачать бесплатно

    Дата: 30-01-2020, 05:01 | .torrent скачали: 2

    Олень / The Deer (2020) WEB-DL [H.264] [MP4|1920x1080] [EN]Производство: Чехия
    Жанр: мультфильм, короткометражка
    Режиссер: Nazar Germanov

    Описание

    Охотник застрелив оленя обнаруживает на месте своей добычи раненую девушку.

    Продолжительность: 00: 06: 21
    Качество видео: WEB-DL
    Перевод: Отсутствует
    Язык озвучки Английский
    Субтитры: отсутствуют
    Реклама: Без рекламы
    Видео: AVC/H.264, 1920x1080, ~10.0 Mbps
    Аудио: AAC, 2 ch, 317 Kbps
    Формат : MPEG-4
    Профиль формата : Base Media/Version 2
    Идентификатор кодека : mp42 (mp42/isom/avc1)
    Размер файла : 450 Мбайт
    Продолжительность : 6 м. 21 с.
    Режим общего битрейта : Переменный
    Общий поток : 9896 Кбит/сек
    Дата пометки : UTC 2020-01-08 09: 20: 54
    TIM : 00: 00: 00: 00
    TSC : 24
    TSZ : 1
    Видео
    Идентификатор : 2
    Формат : AVC
    Формат/Информация : Advanced Video Codec
    Профиль формата : High@L5
    Настройки формата : CABAC/3 Ref Frames
    Параметр CABAC формата : Да
    Параметр RefFrames формата : 3 кадра
    Идентификатор кодека : avc1
    Идентификатор кодека/Информация : Advanced Video Coding
    Продолжительность : 6 м. 21 с.
    Вид битрейта : Переменный
    Битрейт : 10000 Кбит/сек
    Максимальный битрейт : 13, 0 Мбит/сек
    Ширина : 1920 пикселей
    Высота : 1080 пикселей
    Соотношение сторон : 16: 9
    Режим частоты кадров : Постоянный
    Частота кадров : 24, 000 кадра/сек
    Стандарт вещания : Component
    Цветовое пространство : YUV
    Субдискретизация насыщенности : 4: 2: 0
    Битовая глубина : 8 бит
    Тип развёртки : Прогрессивная
    Бит/(Пиксели*Кадры) : 0.201
    Размер потока : 435 Мбайт (97%)
    Библиотека кодирования : x264 core 136
    Настройки программы : cabac=1/ref=3/deblock=1: 0: 0/analyse=0x3: 0x113/me=hex/subme=7/psy=1/psy_rd=1.00: 0.00/mixed_ref=1/me_range=16/chroma_me=1/trellis=1/8x8dct=1/cqm=2/deadzone=21, 11/fast_pskip=1/chroma_qp_offset=-2/threads=3/lookahead_threads=1/sliced_threads=0/slices=1/nr=0/decimate=1/interlaced=0/bluray_compat=0/constrained_intra=0/bframes=3/b_pyramid=0/b_adapt=1/b_bias=0/direct=1/weightb=1/open_gop=0/weightp=2/keyint=200/keyint_min=20/scenecut=45/intra_refresh=0/rc_lookahead=40/rc=abr/mbtree=1/bitrate=10000/ratetol=1.0/qcomp=0.60/qpmin=3/qpmax=69/qpstep=4/vbv_maxrate=13000/vbv_bufsize=16801/nal_hrd=vbr/ip_ratio=1.40/aq=1: 1.00
    Цветовой диапазон : Limited
    Основные цвета : BT.709
    Характеристики трансфера : BT.709
    Коэффициенты матрицы : BT.709
    Codec configuration box : avcC
    Аудио
    Идентификатор : 1
    Формат : AAC Main
    Формат/Информация : Advanced Audio Codec
    Идентификатор кодека : mp4a-40-1
    Продолжительность : 6 м. 21 с.
    Вид битрейта : Переменный
    Битрейт : 317 Кбит/сек
    Максимальный битрейт : 576 Кбит/сек
    Каналы : 2 канала
    Channel layout : L R
    Частота : 48, 0 КГц
    Частота кадров : 46, 875 кадров/сек (1024 SPF)
    Метод сжатия : С потерями
    Размер потока : 14, 4 Мбайт (3%)
    Скриншоты:


    Все одноименные релизы в Клубе
    Время раздачи: 24/7 (до появления первых 3-5 скачавших)

    Олень / The Deer (2020) WEB-DL [H.264] [MP4|1920x1080] [EN] торрент скачать бесплатно
    Рейтинг →
     (голосов: 1, оценка 3/5, голосовать можно 1 раз )

    Другие торренты по теме:

  • Латышская народная сказка | Белый олень (1971) [PDF]
  • Созрыко Бритаев | Золоторогий олень. Осетинские сказки (1964) [FB2]
  • Король-олень (1969) DVDRip [H.264]
  • студия Диафильм | Друг и мертвый олень (1956) [JPG]


    • Комментарии (0):

      Информация

      Информация

        Посетители, находящиеся в группе Гости, не могут оставлять комментарии в данной новости.

        ↓ Меню




        ↓ Опрос

        Вы добавили сайт в закладки?
        Да
        Нет


        Популярное

        Гоголь: Начало, Вий, Месть. Трилогия (2017, 2018) HDRip [H.264] [MP4|1080p]

        (скачиваний: 144)
        Карты для iGo 2019.Q2 HERE (NQ, NavTeq) Европа [25.07.2019]

        (скачиваний: 143)
        Властелин Колец: Братва и кольцо / Две сорванные башни / Возвращение Бомжа (2002 / 2003 / 2004) (Трилогия) BDRip [H.264] [MP4|1920x1080] Гоблин [Пародия]

        (скачиваний: 131)
        Кукутики: Полная коллекция / (Kukutiki: Full collection) (2015-2018) WEB-DLRip [H.264] (Серии 1-79 из 79 + Караоке версии 1-16 из 16) [MP4|1280x720]

        (скачиваний: 70)
        Властелин колец: Трилогия (The Lord of the Rings: Trilogy) (Extended Cut) (2001 / 2002 / 2003) [MP4 | 960x400] <BDRip H.264>

        (скачиваний: 70)
        Начало / Inception (2010) DVDRip [MP4|640x272]

        (скачиваний: 38)
        Нереальная история. Менделеев и раствор (2012-2013) WEBRip [H.264] (серии 1-13 из 13) [MP4|720x404] [нарезка]

        (скачиваний: 32)
        Разлом Сан-Андреас / San Andreas (2015) HDRip [H.264] [MP4|960х400] скачать через торрент бесплатно

        (скачиваний: 30)
        NaviTel / Навител Навигатор v9.10.2281 [Ru / Multi] (Windows CE)

        (скачиваний: 29)
        Сборка iGO Primo NextGen 9.19.1.484935 WinCE [Ru / Multi] - навигационный программный комплекс для устройств с WinCE скачать через торрент бесплатно

        (скачиваний: 28)