.
Авторизация | Регистрация
bitok.xyz
» » Рик и Морти / Rick and Morty (2015) BDRip [H.264 / 720p-LQ] (сезон 2, серии 1-10 из 10) Сыендук торрент скачать бесплатно


    Рик и Морти / Rick and Morty (2015) BDRip [H.264 / 720p-LQ] (сезон 2, серии 1-10 из 10) Сыендук торрент скачать бесплатно

    Дата: 8-08-2016, 04:00 | .torrent скачали: 79

    Рик и Морти / Rick and Morty (2015) BDRip [H.264 / 720p-LQ] (сезон 2, серии 1-10 из 10) СыендукПроизводство: США, Harmonius Claptrap, Justin Roiland\'s Solo Vanity Card Productions, Starburns Industries, Williams Street
    Жанр: мультфильм, комедия, фантастика, для взрослых
    Режиссер: Пит Мишелс, Брайан Ньютон, Джон Райс

    Актеры
    Джастин Ройланд, Крис Парнелл, Спенсер Грэммер, Сара Чок, Кари Уолгрен, Райан Ридли, Том Кенни, Морис ЛаМарш, Фил Хендри, Брэндон Джонсон и др.

    Описание

    Учёный-социопат вовлекает своего невинного внука в опасные межпространственные приключения.

    Возраст: 18+ (зрителям, достигшим 18 лет. запрещено для детей)
    Рейтинг MPAA: PG (рекомендуется присутствие родителей)
    Продолжительность: ~ 00: 20: 00 серия
    Качество видео: BDRip
    Перевод: Профессиональный одноголосый закадровый -Сыендук
    Вид субтитров: вшитые отключаемые
    Язык субтитров: русский, английский
    Формат: MKV
    Видео: AVC/H.264, 1280x720 (16: 9), ~1666-2843 Kbps
    Аудио #1 Rus: AC3, 640 kbps, 6 ch, 48 kHz - одноголосый закадровый
    Аудио #2 Eng: AC3, 640 kbps, 6 ch, 48 kHz - оригинал
    Аудио #3 Eng: AC3, 192 kbps, 2 ch, 48 kHz - creator and animator audio commentaries
    Аудио #4 Eng: AC3, 192 kbps, 2 ch, 48 kHz - special guest commentaries (2, 4 и 6 серии) Код: Общее
    Rick and Morty - Рик и Морти. Сезон 2. BDRip 720p1. Рик во времени.mkv
    Формат : Matroska
    Версия формата : Version 4/Version 2
    Размер файла : 720 Мбайт
    Продолжительность : 22 м.
    Общий поток : 4402 Кбит/сек
    Название фильма : Рик и Морти/Rick and Morty (2015) S02E01 Рик во времени/A Rickle in Time
    Дата кодирования : UTC 2016-08-06 09:58:28
    Программа кодирования : mkvmerge v9.3.1 (\'Mask Machine\') 64bit
    Библиотека кодирования : libebml v1.3.4 + libmatroska v1.4.5
    Attachements : cover.jpg
    Видео
    Идентификатор : 1
    Формат : AVC
    Формат/Информация : Advanced Video Codec
    Профиль формата :High@L4.1
    Параметр CABAC формата : Да
    Параметр ReFrames формата : 9 кадров
    Идентификатор кодека : V_MPEG4/ISO/AVC
    Продолжительность : 22 м.
    Битрейт : 2843 Кбит/сек
    Ширина : 1280 пикселей
    Высота : 720 пикселей
    Соотношение сторон : 16:9
    Режим частоты кадров : Постоянный
    Частота кадров : 23, 976 кадра/сек
    Цветовое пространство : YUV
    Субдискретизация насыщенности : 4:2:0
    Битовая глубина : 8 бит
    Тип развёртки : Прогрессивная
    Бит/(Пиксели*Кадры) : 0.129
    Размер потока : 465 Мбайт (65%)
    Заголовок : MPEG-4 AVC @ ~2000 kbps - NTb
    Библиотека кодирования : x264 core 148 r2692kMod 64f4e24
    Настройки программы : cabac=1/ref=9/deblock=1:-2:-1/analyse=0x3:0x133/me=umh/subme=10/psy=1/fade_compensate=0.00/psy_rd=0.50:0.00/mixed_ref=1/me_range=32/chroma_me=1/trellis=2/8x8dct=1/cqm=0/deadzone=21, 11/fast_pskip=1/chroma_qp_offset=-2/threads=12/lookahead_threads=2/sliced_threads=0/nr=0/decimate=1/interlaced=0/bluray_compat=0/constrained_intra=0/fgo=0/bframes=8/b_pyramid=2/b_adapt=2/b_bias=0/direct=3/weightb=1/open_gop=0/weightp=2/keyint=250/keyint_min=23/scenecut=40/intra_refresh=0/rc=crf/mbtree=0/crf=16.5000/qcomp=0.60/qpmin=0/qpmax=69/qpstep=4/ip_ratio=1.30/pb_ratio=1.20/aq=3:0.50
    Язык : English
    Default : Да
    Forced : Нет
    Аудио #1
    Идентификатор : 2
    Формат : AC-3
    Формат/Информация : Audio Coding 3
    Расширение режима : CM (complete main)
    Параметр Endianness формата : Big
    Идентификатор кодека : A_AC3
    Продолжительность : 22 м.
    Вид битрейта : Постоянный
    Битрейт : 640 Кбит/сек
    Каналы : 6 каналов
    Расположение каналов : Front: L C R, Side: L R, LFE
    Частота : 48, 0 КГц
    Битовая глубина : 16 бит
    Метод сжатия : С потерями
    Размер потока : 105 Мбайт (15%)
    Заголовок : AC3 5.1 @ 640 Kbps - Одноголосый закадровый, Сыендук
    Язык : Russian
    Default : Да
    Forced : Нет
    Аудио #2
    Идентификатор : 3
    Формат : AC-3
    Формат/Информация : Audio Coding 3
    Расширение режима : CM (complete main)
    Параметр Endianness формата : Big
    Идентификатор кодека : A_AC3
    Продолжительность : 22 м.
    Вид битрейта : Постоянный
    Битрейт : 640 Кбит/сек
    Каналы : 6 каналов
    Расположение каналов : Front: L C R, Side: L R, LFE
    Частота : 48, 0 КГц
    Битовая глубина : 16 бит
    Метод сжатия : С потерями
    Размер потока : 105 Мбайт (15%)
    Заголовок : AC3 5.1 @ 640 Kbps
    Язык : English
    Default : Нет
    Forced : Нет
    Аудио #3
    Идентификатор : 4
    Формат : AC-3
    Формат/Информация : Audio Coding 3
    Расширение режима : CM (complete main)
    Параметр Endianness формата : Big
    Идентификатор кодека : A_AC3
    Продолжительность : 22 м.
    Вид битрейта : Постоянный
    Битрейт : 192 Кбит/сек
    Каналы : 2 канала
    Расположение каналов : Front: L R
    Частота : 48, 0 КГц
    Битовая глубина : 16 бит
    Метод сжатия : С потерями
    Размер потока : 31, 4 Мбайт (4%)
    Заголовок : AC3 2.0 @ 192 Kbps - Commentary with Dan Harmon, Justin Roiland, Ryan Ridley and Wes Archer
    Язык : English
    Default : Нет
    Forced : Нет
    Текст #1
    Идентификатор : 5
    Формат : UTF-8
    Идентификатор кодека : S_TEXT/UTF8
    Идентификатор кодека/Информация : UTF-8 Plain Text
    Заголовок : SRT - Full
    Язык : Russian
    Default : Нет
    Forced : Нет
    Текст #2
    Идентификатор : 6
    Формат : UTF-8
    Идентификатор кодека : S_TEXT/UTF8
    Идентификатор кодека/Информация : UTF-8 Plain Text
    Заголовок : SRT - Full
    Язык : English
    Default : Нет
    Forced : Нет
    Текст #3
    Идентификатор : 7
    Формат : UTF-8
    Идентификатор кодека : S_TEXT/UTF8
    Идентификатор кодека/Информация : UTF-8 Plain Text
    Заголовок : SRT - Full SDH
    Язык : English
    Default : Нет
    Forced : Нет
    Меню
    00:00:00.000 : en:Chapter 1
    00:02:29.358 : en:Chapter 2
    00:03:01.181 : en:Chapter 3
    00:11:13.506 : en:Chapter 4
    00:21:31.957 : en:Chapter 5
    00:22:02.905 : en:Chapter 6 Код: Общее
    Rick and Morty - Рик и Морти. Самое интересное в это истории, что об этом Шварценеггер ничего не знал. Сезон 2. BDRip 720p2. Успеть до Морти-ночи.mkv
    Формат : Matroska
    Версия формата : Version 4/Version 2
    Размер файла : 729 Мбайт
    Продолжительность : 22 м.
    Общий поток : 4475 Кбит/сек
    Название фильма : Рик и Морти/Rick and Morty (2015) S02E02 Успеть до Морти-ночи/Mortynight Run
    Дата кодирования : UTC 2016-08-06 10:23:25
    Программа кодирования : mkvmerge v9.3.1 (\'Mask Machine\') 64bit
    Библиотека кодирования : libebml v1.3.4 + libmatroska v1.4.5
    Attachements : cover.jpg
    Видео
    Идентификатор : 1
    Формат : AVC
    Формат/Информация : Advanced Video Codec
    Профиль формата :High@L4.1
    Параметр CABAC формата : Да
    Параметр ReFrames формата : 9 кадров
    Идентификатор кодека : V_MPEG4/ISO/AVC
    Продолжительность : 22 м.
    Битрейт : 2722 Кбит/сек
    Ширина : 1280 пикселей
    Высота : 720 пикселей
    Соотношение сторон : 16:9
    Режим частоты кадров : Постоянный
    Частота кадров : 23, 976 кадра/сек
    Цветовое пространство : YUV
    Субдискретизация насыщенности : 4:2:0
    Битовая глубина : 8 бит
    Тип развёртки : Прогрессивная
    Бит/(Пиксели*Кадры) : 0.123
    Размер потока : 443 Мбайт (61%)
    Заголовок : MPEG-4 AVC @ ~2000 kbps - NTb
    Библиотека кодирования : x264 core 148 r2692kMod 64f4e24
    Настройки программы : cabac=1/ref=9/deblock=1:-2:-1/analyse=0x3:0x133/me=umh/subme=10/psy=1/fade_compensate=0.00/psy_rd=0.50:0.00/mixed_ref=1/me_range=32/chroma_me=1/trellis=2/8x8dct=1/cqm=0/deadzone=21, 11/fast_pskip=1/chroma_qp_offset=-2/threads=12/lookahead_threads=2/sliced_threads=0/nr=0/decimate=1/interlaced=0/bluray_compat=0/constrained_intra=0/fgo=0/bframes=8/b_pyramid=2/b_adapt=2/b_bias=0/direct=3/weightb=1/open_gop=0/weightp=2/keyint=250/keyint_min=23/scenecut=40/intra_refresh=0/rc=crf/mbtree=0/crf=16.5000/qcomp=0.60/qpmin=0/qpmax=69/qpstep=4/ip_ratio=1.30/pb_ratio=1.20/aq=3:0.50
    Язык : English
    Default : Да
    Forced : Нет
    Аудио #1
    Идентификатор : 2
    Формат : AC-3
    Формат/Информация : Audio Coding 3
    Расширение режима : CM (complete main)
    Параметр Endianness формата : Big
    Идентификатор кодека : A_AC3
    Продолжительность : 22 м.
    Вид битрейта : Постоянный
    Битрейт : 640 Кбит/сек
    Каналы : 6 каналов
    Расположение каналов : Front: L C R, Side: L R, LFE
    Частота : 48, 0 КГц
    Битовая глубина : 16 бит
    Метод сжатия : С потерями
    Размер потока : 104 Мбайт (14%)
    Заголовок : AC3 5.1 @ 640 Kbps - Одноголосый закадровый, Сыендук
    Язык : Russian
    Default : Да
    Forced : Нет
    Аудио #2
    Идентификатор : 3
    Формат : AC-3
    Формат/Информация : Audio Coding 3
    Расширение режима : CM (complete main)
    Параметр Endianness формата : Big
    Идентификатор кодека : A_AC3
    Продолжительность : 22 м.
    Вид битрейта : Постоянный
    Битрейт : 640 Кбит/сек
    Каналы : 6 каналов
    Расположение каналов : Front: L C R, Side: L R, LFE
    Частота : 48, 0 КГц
    Битовая глубина : 16 бит
    Метод сжатия : С потерями
    Размер потока : 104 Мбайт (14%)
    Заголовок : AC3 5.1 @ 640 Kbps
    Язык : English
    Default : Нет
    Forced : Нет
    Аудио #3
    Идентификатор : 4
    Формат : AC-3
    Формат/Информация : Audio Coding 3
    Расширение режима : CM (complete main)
    Параметр Endianness формата : Big
    Идентификатор кодека : A_AC3
    Продолжительность : 22 м.
    Вид битрейта : Постоянный
    Битрейт : 192 Кбит/сек
    Каналы : 2 канала
    Расположение каналов : Front: L R
    Частота : 48, 0 КГц
    Битовая глубина : 16 бит
    Метод сжатия : С потерями
    Размер потока : 31, 3 Мбайт (4%)
    Заголовок : AC3 2.0 @ 192 Kbps - Commentary with Dan Harmon, Justin Roiland, Ryan Ridley
    Язык : English
    Default : Нет
    Forced : Нет
    Аудио #4
    Идентификатор : 5
    Формат : AC-3
    Формат/Информация : Audio Coding 3
    Расширение режима : CM (complete main)
    Параметр Endianness формата : Big
    Идентификатор кодека : A_AC3
    Продолжительность : 22 м.
    Вид битрейта : Постоянный
    Битрейт : 192 Кбит/сек
    Каналы : 2 канала
    Расположение каналов : Front: L R
    Частота : 48, 0 КГц
    Битовая глубина : 16 бит
    Метод сжатия : С потерями
    Размер потока : 31, 3 Мбайт (4%)
    Заголовок : AC3 2.0 @ 192 Kbps - Commentary with Erik Wolpaw, Jay Pinkerton, Cabe Newell
    Язык : English
    Default : Нет
    Forced : Нет
    Текст #1
    Идентификатор : 6
    Формат : UTF-8
    Идентификатор кодека : S_TEXT/UTF8
    Идентификатор кодека/Информация : UTF-8 Plain Text
    Заголовок : SRT - Full
    Язык : Russian
    Default : Нет
    Forced : Нет
    Текст #2
    Идентификатор : 7
    Формат : UTF-8
    Идентификатор кодека : S_TEXT/UTF8
    Идентификатор кодека/Информация : UTF-8 Plain Text
    Заголовок : SRT - Full
    Язык : English
    Default : Нет
    Forced : Нет
    Текст #3
    Идентификатор : 8
    Формат : UTF-8
    Идентификатор кодека : S_TEXT/UTF8
    Идентификатор кодека/Информация : UTF-8 Plain Text
    Заголовок : SRT - Full SDH
    Язык : English
    Default : Нет
    Forced : Нет
    Меню
    00:00:00.000 : en:Chapter 1
    00:01:56.908 : en:Chapter 2
    00:02:28.732 : en:Chapter 3
    00:10:00.517 : en:Chapter 4
    00:21:39.715 : en:Chapter 5
    00:22:10.454 : en:Chapter 6

    Скриншоты для ознакомления




    Онлайн видео Рик и Морти



    Рик и Морти/Rick and Morty (2015) BDRip [H.264/720p-LQ] (сезон 2, серии 1-10 из 10) Сыендук
    Рейтинг →
     (голосов: 1, оценка 4/5, голосовать можно 1 раз )

    Другие торренты по теме:

  • Рик и Морти / Rick and Morty (2015) WEB-DLRip [H.264 / 720] (2 Сезон, серия 1 из ) Сыендук [Обновляемая] скачать через торрент бесплатно
  • Рик и Морти / Rick and Morty (2013) BDRip [H.264 / 1080p] (Сезон 1, серии 1-11 из 11) Сыендук [EN Sub] скачать через торрент бесплатно
  • Рик и Морти / Rick and Morty (2015) WEB-DL [H.264 / 1080p] (Сезон 2, серии 1-10 из 10) Сыендук [EN / RU Sub] скачать через торрент бесплатно
  • Рик и Морти / Rick and Morty (2015) BDRip [H.264 / 1080p-LQ] (сезон 2, серии 1-10 из 10) Сыендук
  • Рик и Морти / Rick and Morty (2013) BDRip [H.264 / 720p-LQ] (сезон 1, серии 1-11 из 11) Сыендук
  • Рик и Морти / Rick and Morty (2014-2015) BDRip [H.264 / 1080p-LQ] (сезон 1-2, серии 1-21 из 21) Сыендук [Hi444PP]
  • Рик и Морти / Rick and Morty (2013-2015) BDRip [H.264] (сезон 1-2, серии 1-21 из 21) Сыендук
  • Рик и Морти / Rick and Morty (2017) HDTVRip [H.264 / 720p-LQ] (Сезон 3, серии 1-1 из 10) Sunshine Studio


    • Комментарии (0):

      Информация

      Информация

        Посетители, находящиеся в группе Гости, не могут оставлять комментарии в данной новости.

        ↓ Меню




        ↓ Опрос

        Вы добавили сайт в закладки?
        Да
        Нет


        Популярное

        Рик и Морти / Rick and Morty (2015) WEB-DL [H.264 / 1080p] (Сезон 2, серии 1-10 из 10) Сыендук [EN / RU Sub] скачать через торрент бесплатно

        (скачиваний: 230)
        Жила-была царевна (2015-2019) WEB-DLRip [H.264 / 720p-LQ] (сезон 1, серии 1-18 из 26) [Обновляемая]

        (скачиваний: 195)
        Малышарики (2015-2019) WEB-DL [H.264 / 1080p-LQ] (серии 1-154 из 208) [Обновляемая]

        (скачиваний: 167)
        Снежная Королева: Хранители Чудес (2019) WEB-DLRip [H.264 / 720p-LQ] (сезон 1, серия 1-4 из 26) [Обновляемая]

        (скачиваний: 160)
        Футурама / Futurama (1999-2013) DVDRip (7 Сезонов, 140 серии) скачать через торрент бесплатно

        (скачиваний: 157)
        Рик и Морти / Rick and Morty (2013) BDRip [H.264 / 720p-LQ] (сезон 1, серии 1-11 из 11) Сыендук

        (скачиваний: 151)
        Рик и Морти / Rick and Morty (2013) BDRip [H.264 / 1080p] (Сезон 1, серии 1-11 из 11) Сыендук [EN Sub] скачать через торрент бесплатно

        (скачиваний: 135)
        Рик и Морти / Rick and Morty (2013-2015) BDRip [H.264] (сезон 1-2, серии 1-21 из 21) Сыендук

        (скачиваний: 129)
        Металионы / Metalions (2018-2019) WEB-DLRip [H.264 / 720p-LQ] (сезон 1, серии 1-52 из 52) [Обновляемая]

        (скачиваний: 105)
        М.Ю. Демидова | ЕГЭ-2020. Физика. 30 типовых вариантов (2020) [PDF]

        (скачиваний: 100)