Подписывайся на наш канал в Telegram https://t.me/torrentok и получи доступ к торрентам без ограничений!
.
Авторизация | Регистрация
bitok.xyz
Торрент скачать бесплатно Мультфильмы торрент скачать Рик и Морти / Rick and Morty (2013) BDRip [H.264 / 720p-LQ] (сезон 1, серии 1-11 из 11) Сыендук торрент скачать бесплатно


    Рик и Морти / Rick and Morty (2013) BDRip [H.264 / 720p-LQ] (сезон 1, серии 1-11 из 11) Сыендук торрент скачать бесплатно

    Дата: 8-08-2016, 04:00 | .torrent скачали: 448

    Рик и Морти / Rick and Morty (2013) BDRip [H.264 / 720p-LQ] (сезон 1, серии 1-11 из 11) СыендукПроизводство: США, Harmonius Claptrap, Justin Roiland\'s Solo Vanity Card Productions, Starburns Industries, Williams Street
    Жанр: мультфильм, комедия, фантастика, для взрослых
    Режиссер: Пит Мишелс, Брайан Ньютон, Джон Райс

    Актеры
    Джастин Ройланд, Крис Парнелл, Спенсер Грэммер, Сара Чок, Кари Уолгрен, Райан Ридли, Том Кенни, Морис ЛаМарш, Фил Хендри, Брэндон Джонсон и др.

    Описание

    Учёный-социопат вовлекает своего невинного внука в опасные межпространственные приключения.

    Возраст: 18+ (зрителям, достигшим 18 лет. запрещено для детей)
    Рейтинг MPAA: PG (рекомендуется присутствие родителей)
    Продолжительность: ~ 00: 20: 00 серия
    Качество видео: BDRip
    Перевод: Профессиональный одноголосый закадровый -Сыендук
    Вид субтитров: вшитые отключаемые
    Язык субтитров: русский, английский
    Формат: MKV
    Видео: AVC/H.264, 1280x720 (16: 9), ~1378-2247 Kbps
    Аудио #1 Rus: AC3, 640 kbps, 6 ch, 48 kHz - одноголосый закадровый
    Аудио #2 Eng: AC3, 640 kbps, 6 ch, 48 kHz - оригинал
    Аудио #3 Eng: AC3, 192 kbps, 2 ch, 48 kHz - creator and animator audio commentaries
    Аудио #4 Eng: AC3, 192 kbps, 2 ch, 48 kHz - special guest commentaries (6, 8 и 10 серии) Код: Общее
    Rick and Morty - Рик и Морти. Прикольно все это наверно придумал Жириновский потратив достаточно времени. Сезон 1. О таком странном сюжете не догадывалась даже Бритни Спирс. BDRip 720p1. Белая горячка, сказал кто то из толпы, к чему не понятно. Пилот.mkv
    Формат : Matroska
    Версия формата : Version 4/Version 2
    Размер файла : 489 Мбайт
    Продолжительность : 22 м.
    Общий поток : 3101 Кбит/сек
    Название фильма : Рик и Морти/Rick and Morty (2013) S01E01 Пилот/Pilot
    Дата кодирования : UTC 2016-07-22 16:59:04
    Программа кодирования : mkvmerge v9.3.1 (\'Mask Machine\') 64bit
    Библиотека кодирования : libebml v1.3.4 + libmatroska v1.4.5
    Attachements : cover.jpg
    Видео
    Идентификатор : 1
    Формат : AVC
    Формат/Информация : Advanced Video Codec
    Профиль формата :High@L4.1
    Параметр CABAC формата : Да
    Параметр ReFrames формата : 9 кадров
    Идентификатор кодека : V_MPEG4/ISO/AVC
    Продолжительность : 22 м.
    Битрейт : 1567 Кбит/сек
    Ширина : 1280 пикселей
    Высота : 720 пикселей
    Соотношение сторон : 16:9
    Режим частоты кадров : Постоянный
    Частота кадров : 23, 976 кадра/сек
    Цветовое пространство : YUV
    Субдискретизация насыщенности : 4:2:0
    Битовая глубина : 8 бит
    Тип развёртки : Прогрессивная
    Бит/(Пиксели*Кадры) : 0.071
    Размер потока : 247 Мбайт (51%)
    Заголовок : MPEG-4 AVC @ ~2500 kbps - NTb
    Библиотека кодирования : x264 core 142 r2479kMod dd79a61
    Настройки программы : cabac=1/ref=9/deblock=1:-2:-1/analyse=0x3:0x133/me=umh/subme=10/psy=1/fade_compensate=0.00/psy_rd=0.50:0.00/mixed_ref=1/me_range=24/chroma_me=1/trellis=2/8x8dct=1/cqm=0/deadzone=21, 11/fast_pskip=1/chroma_qp_offset=-2/threads=12/lookahead_threads=2/sliced_threads=0/nr=0/decimate=1/interlaced=0/bluray_compat=0/constrained_intra=0/fgo=0/bframes=8/b_pyramid=2/b_adapt=2/b_bias=0/direct=3/weightb=1/open_gop=0/weightp=2/keyint=250/keyint_min=23/scenecut=40/intra_refresh=0/rc=crf/mbtree=0/crf=16.5000/qcomp=0.60/qpmin=0/qpmax=69/qpstep=4/ip_ratio=1.30/pb_ratio=1.20/aq=1:0.50/zones=3068, 3175, crf=13
    Язык : English
    Default : Да
    Forced : Нет
    Аудио #1
    Идентификатор : 2
    Формат : AC-3
    Формат/Информация : Audio Coding 3
    Расширение режима : CM (complete main)
    Параметр Endianness формата : Big
    Идентификатор кодека : A_AC3
    Продолжительность : 22 м.
    Вид битрейта : Постоянный
    Битрейт : 640 Кбит/сек
    Каналы : 6 каналов
    Расположение каналов : Front: L C R, Side: L R, LFE
    Частота : 48, 0 КГц
    Битовая глубина : 16 бит
    Метод сжатия : С потерями
    Размер потока : 101 Мбайт (21%)
    Заголовок : AC3 5.1 @ 640 Kbps - Одноголосый закадровый, Сыендук
    Язык : Russian
    Default : Да
    Forced : Нет
    Аудио #2
    Идентификатор : 3
    Формат : AC-3
    Формат/Информация : Audio Coding 3
    Расширение режима : CM (complete main)
    Параметр Endianness формата : Big
    Идентификатор кодека : A_AC3
    Продолжительность : 22 м.
    Вид битрейта : Постоянный
    Битрейт : 640 Кбит/сек
    Каналы : 6 каналов
    Расположение каналов : Front: L C R, Side: L R, LFE
    Частота : 48, 0 КГц
    Битовая глубина : 16 бит
    Метод сжатия : С потерями
    Размер потока : 101 Мбайт (21%)
    Заголовок : AC3 5.1 @ 640 Kbps
    Язык : English
    Default : Нет
    Forced : Нет
    Аудио #3
    Идентификатор : 4
    Формат : AC-3
    Формат/Информация : Audio Coding 3
    Расширение режима : CM (complete main)
    Параметр Endianness формата : Big
    Идентификатор кодека : A_AC3
    Продолжительность : 22 м.
    Вид битрейта : Постоянный
    Битрейт : 192 Кбит/сек
    Каналы : 2 канала
    Расположение каналов : Front: L R
    Частота : 48, 0 КГц
    Битовая глубина : 16 бит
    Метод сжатия : С потерями
    Размер потока : 30, 2 Мбайт (6%)
    Заголовок : AC3 2.0 @ 192 Kbps - Commentary with Dan Harmon, Justin Roiland and Ryan Elder
    Язык : English
    Default : Нет
    Forced : Нет
    Текст #1
    Идентификатор : 5
    Формат : UTF-8
    Идентификатор кодека : S_TEXT/UTF8
    Идентификатор кодека/Информация : UTF-8 Plain Text
    Заголовок : SRT - Full - Netflix
    Язык : Russian
    Default : Нет
    Forced : Нет
    Текст #2
    Идентификатор : 6
    Формат : UTF-8
    Идентификатор кодека : S_TEXT/UTF8
    Идентификатор кодека/Информация : UTF-8 Plain Text
    Заголовок : SRT - Full
    Язык : English
    Default : Нет
    Forced : Нет
    Текст #3
    Идентификатор : 7
    Формат : UTF-8
    Идентификатор кодека : S_TEXT/UTF8
    Идентификатор кодека/Информация : UTF-8 Plain Text
    Заголовок : SRT - Full SDH
    Язык : English
    Default : Нет
    Forced : Нет
    Меню
    00:00:00.000 : en:Chapter 1
    00:02:07.961 : en:Chapter 2
    00:02:39.826 : en:Chapter 3
    00:08:35.348 : en:Chapter 4
    00:21:35.461 : en:Chapter 5 Код: Общее
    Rick and Morty - Рик и Морти. Сезон 1. Самое интересное в это истории, что об этом Жириновский ничего не знал. BDRip 720p6. Напиток Рика #9.mkv
    Формат : Matroska
    Версия формата : Version 4/Version 2
    Размер файла : 444 Мбайт
    Продолжительность : 21 м.
    Общий поток : 2892 Кбит/сек
    Название фильма : Рик и Морти/Rick and Morty (2013) S01E06 Напиток Рика #9/Rick Potion #9
    Дата кодирования : UTC 2016-07-22 17:01:59
    Программа кодирования : mkvmerge v9.3.1 (\'Mask Machine\') 64bit
    Библиотека кодирования : libebml v1.3.4 + libmatroska v1.4.5
    Attachements : cover.jpg
    Видео
    Идентификатор : 1
    Формат : AVC
    Формат/Информация : Advanced Video Codec
    Профиль формата :High@L4.1
    Параметр CABAC формата : Да
    Параметр ReFrames формата : 9 кадров
    Идентификатор кодека : V_MPEG4/ISO/AVC
    Продолжительность : 21 м.
    Битрейт : 1683 Кбит/сек
    Ширина : 1280 пикселей
    Высота : 720 пикселей
    Соотношение сторон : 16:9
    Режим частоты кадров : Постоянный
    Частота кадров : 23, 976 кадра/сек
    Цветовое пространство : YUV
    Субдискретизация насыщенности : 4:2:0
    Битовая глубина : 8 бит
    Тип развёртки : Прогрессивная
    Бит/(Пиксели*Кадры) : 0.076
    Размер потока : 259 Мбайт (58%)
    Заголовок : MPEG-4 AVC @ ~2500 kbps - NTb
    Библиотека кодирования : x264 core 142 r2479kMod dd79a61
    Настройки программы : cabac=1/ref=9/deblock=1:-2:-1/analyse=0x3:0x133/me=umh/subme=10/psy=1/fade_compensate=0.00/psy_rd=0.50:0.00/mixed_ref=1/me_range=24/chroma_me=1/trellis=2/8x8dct=1/cqm=0/deadzone=21, 11/fast_pskip=1/chroma_qp_offset=-2/threads=12/lookahead_threads=2/sliced_threads=0/nr=0/decimate=1/interlaced=0/bluray_compat=0/constrained_intra=0/fgo=0/bframes=8/b_pyramid=2/b_adapt=2/b_bias=0/direct=3/weightb=1/open_gop=0/weightp=2/keyint=250/keyint_min=23/scenecut=40/intra_refresh=0/rc=crf/mbtree=0/crf=16.5000/qcomp=0.60/qpmin=0/qpmax=69/qpstep=4/ip_ratio=1.30/pb_ratio=1.20/aq=1:0.50/zones=0, 135, crf=13
    Язык : English
    Default : Да
    Forced : Нет
    Аудио #1
    Идентификатор : 2
    Формат : AC-3
    Формат/Информация : Audio Coding 3
    Расширение режима : CM (complete main)
    Параметр Endianness формата : Big
    Идентификатор кодека : A_AC3
    Продолжительность : 21 м.
    Вид битрейта : Постоянный
    Битрейт : 384 Кбит/сек
    Каналы : 6 каналов
    Расположение каналов : Front: L C R, Side: L R, LFE
    Частота : 48, 0 КГц
    Битовая глубина : 16 бит
    Метод сжатия : С потерями
    Размер потока : 59, 0 Мбайт (13%)
    Заголовок : AC3 5.1 @ 640 Kbps - Одноголосый закадровый, Сыендук
    Язык : Russian
    Default : Да
    Forced : Нет
    Аудио #2
    Идентификатор : 3
    Формат : AC-3
    Формат/Информация : Audio Coding 3
    Расширение режима : CM (complete main)
    Параметр Endianness формата : Big
    Идентификатор кодека : A_AC3
    Продолжительность : 21 м.
    Вид битрейта : Постоянный
    Битрейт : 384 Кбит/сек
    Каналы : 6 каналов
    Расположение каналов : Front: L C R, Side: L R, LFE
    Частота : 48, 0 КГц
    Битовая глубина : 16 бит
    Метод сжатия : С потерями
    Размер потока : 59, 0 Мбайт (13%)
    Заголовок : AC3 5.1 @ 640 Kbps
    Язык : English
    Default : Нет
    Forced : Нет
    Аудио #3
    Идентификатор : 4
    Формат : AC-3
    Формат/Информация : Audio Coding 3
    Расширение режима : CM (complete main)
    Параметр Endianness формата : Big
    Идентификатор кодека : A_AC3
    Продолжительность : 21 м.
    Вид битрейта : Постоянный
    Битрейт : 192 Кбит/сек
    Каналы : 2 канала
    Расположение каналов : Front: L R
    Частота : 48, 0 КГц
    Битовая глубина : 16 бит
    Метод сжатия : С потерями
    Размер потока : 29, 5 Мбайт (7%)
    Заголовок : AC3 2.0 @ 192 Kbps - with Harmon, Roiland, Ridley and Stephen Sandoval
    Язык : English
    Default : Нет
    Forced : Нет
    Аудио #4
    Идентификатор : 5
    Формат : AC-3
    Формат/Информация : Audio Coding 3
    Расширение режима : CM (complete main)
    Параметр Endianness формата : Big
    Идентификатор кодека : A_AC3
    Продолжительность : 21 м.
    Вид битрейта : Постоянный
    Битрейт : 192 Кбит/сек
    Каналы : 2 канала
    Расположение каналов : Front: L R
    Частота : 48, 0 КГц
    Битовая глубина : 16 бит
    Метод сжатия : С потерями
    Размер потока : 29, 5 Мбайт (7%)
    Заголовок : AC3 2.0 @ 192 Kbps - The Simpsons\' Matt Groening, Al Jean, J. Stewart Burns, Max Pross, Matt Selman, Jon Kern and Tom Gammill
    Язык : English
    Default : Нет
    Forced : Нет
    Текст #1
    Идентификатор : 6
    Формат : UTF-8
    Идентификатор кодека : S_TEXT/UTF8
    Идентификатор кодека/Информация : UTF-8 Plain Text
    Заголовок : SRT - Full - Netflix
    Язык : Russian
    Default : Нет
    Forced : Нет
    Текст #2
    Идентификатор : 7
    Формат : UTF-8
    Идентификатор кодека : S_TEXT/UTF8
    Идентификатор кодека/Информация : UTF-8 Plain Text
    Заголовок : SRT - Full
    Язык : English
    Default : Нет
    Forced : Нет
    Текст #3
    Идентификатор : 8
    Формат : UTF-8
    Идентификатор кодека : S_TEXT/UTF8
    Идентификатор кодека/Информация : UTF-8 Plain Text
    Заголовок : SRT - Full SDH
    Язык : English
    Default : Нет
    Forced : Нет
    Меню
    00:00:00.000 : en:Chapter 1
    00:00:32.824 : en:Chapter 2
    00:09:28.651 : en:Chapter 3
    00:19:51.857 : en:Chapter 4
    00:20:20.594 : en:Chapter 5

    Скриншоты для ознакомления




    Онлайн видео Рик и Морти


    Рик и Морти / Rick and Morty (2013) BDRip [H.264 / 720p-LQ] (сезон 1, серии 1-11 из 11) Сыендук торрент скачать бесплатно
    Рейтинг →
     (голосов: 1, оценка 5/5, голосовать можно 1 раз )

    Другие торренты по теме:

  • Рик и Морти / Rick and Morty (2015) WEB-DLRip [H.264 / 720] (2 Сезон, серия 1 из ) Сыендук [Обновляемая] скачать через торрент бесплатно
  • Рик и Морти / Rick and Morty (2013) BDRip [H.264 / 1080p] (Сезон 1, серии 1-11 из 11) Сыендук [EN Sub] скачать через торрент бесплатно
  • Рик и Морти / Rick and Morty (2015) WEB-DL [H.264 / 1080p] (Сезон 2, серии 1-10 из 10) Сыендук [EN / RU Sub] скачать через торрент бесплатно
  • Рик и Морти / Rick and Morty (2015) BDRip [H.264 / 1080p-LQ] (сезон 2, серии 1-10 из 10) Сыендук
  • Рик и Морти / Rick and Morty (2015) BDRip [H.264 / 720p-LQ] (сезон 2, серии 1-10 из 10) Сыендук
  • Рик и Морти / Rick and Morty (2014-2015) BDRip [H.264 / 1080p-LQ] (сезон 1-2, серии 1-21 из 21) Сыендук [Hi444PP]
  • Рик и Морти / Rick and Morty (2013-2015) BDRip [H.264] (сезон 1-2, серии 1-21 из 21) Сыендук
  • Рик и Морти / Rick and Morty (2017) HDTVRip [H.264 / 720p-LQ] (Сезон 3, серии 1-1 из 10) Sunshine Studio


    • Комментарии (0):

      Информация

      Информация

        Посетители, находящиеся в группе Гости, не могут оставлять комментарии в данной новости.

        ↓ Меню




        ↓ Опрос

        Вы добавили сайт в закладки?
        Да
        Нет


        Популярное

        Фиксики против Кработов (2019) WEB-DLRip

        (скачиваний: 134)
        Рик и Морти / Rick and Morty (2015) WEB-DL [H.264 / 1080p] (Сезон 2, серии 1-10 из 10) Сыендук [EN / RU Sub] скачать через торрент бесплатно

        (скачиваний: 109)
        М.Ю. Демидова | ЕГЭ-2020. Физика. 30 типовых вариантов (2020) [PDF]

        (скачиваний: 80)
        Малышарики (2015-2019) WEB-DL [H.264 / 1080p-LQ] (серии 1-154 из 208) [Обновляемая]

        (скачиваний: 67)
        Рик и Морти / Rick and Morty (2013) BDRip [H.264 / 720p-LQ] (сезон 1, серии 1-11 из 11) Сыендук

        (скачиваний: 65)
        Рик и Морти / Rick and Morty (2013) BDRip [H.264 / 1080p] (Сезон 1, серии 1-11 из 11) Сыендук [EN Sub] скачать через торрент бесплатно

        (скачиваний: 46)
        Фиксики против Кработов (2019) WEB-DL [H.264 / 1080p-LQ]

        (скачиваний: 32)
        Свинка Пеппа / Peppa Pig (2004-2012) SATRip (1-4 сезоны: 208 серий из 209) скачать через торрент бесплатно

        (скачиваний: 28)
        Рик и Морти / Rick and Morty (2017) WEBRip [H.264 / 720p-LQ] (Сезон 3, серии 1 из ) Сыендук

        (скачиваний: 26)
        Роботы-поезда / Robot Trains (2017) WEB-DL [H.264 / 720p-LQ] (1 сезон, 32 серий из 32)

        (скачиваний: 21)