.
Авторизация | Регистрация
bitok.xyz
» » Спокойной ночи, малыши! (2009, 2015) SATRip, TVRip (83 выпусков) торрент скачать бесплатно


    Спокойной ночи, малыши! (2009, 2015) SATRip, TVRip (83 выпусков) торрент скачать бесплатно

    Дата: 23-05-2017, 05:00 | .torrent скачали: 97

    Спокойной ночи, малыши! (2009, 2015) SATRip, TVRip (83 выпусков)Производство: Россия, телеканал Россия/Россия HD/Россия- К/ТРК Класс
    Жанр: Детский, передача
    Ведущий: Оксана Фёдорова, Анна Михалкова, Дмитрий Маликов

    Описание

    Спокойной ночи, малыши - это одна из самых популярных детских передач на отечественном телевидении. Сегодня уже третье поколение детей каждый вечер засыпает только лишь после просмотра любимой передачи. Спокойной ночи, малыши интересны детям в любом возрасте: малыши слушают мелодии, детки постарше интересуются героями передачи – дружными и забавными зверушками, а еще более старшие ребята с нетерпением ждут мультфильма. Самое интересное в это истории, что об этом Уил Смит ничего не знал. Каждый выпуск передачи начинается с познавательной сценки, разыгранной кукольными героями передачи и ведущим, в которой просто и ненавязчиво рассказывается малышам о том Что такое хорошо, и что такое плохо. Далее следует мультик, который обычно близок по теме к вступительной части.
    Возраст: 0+ (для любой зрительской аудитории)
    Продолжительность: ~00: 10: 00 выпуск
    Качество видео: SATRip
    Перевод: Дублированный
    Субтитры: отсутствуют
    Видео: Xvid, 704x576, ~1 196 kb/s
    Аудио: MP3, 2 ch, 128 kb/s
    General
    Complete name : Spokoinoinochi_07_09_2015.avi
    Format : AVI
    Format/Info : Audio Video Interleave
    File size : 116 MiB
    Duration : 12 min 9 s
    Overall bit rate : 1 333 kb/s
    Writing library : VirtualDub build 35491/release
    Video
    ID : 0
    Format : MPEG-4 Visual
    Format profile : Advanced Simple@L5
    Format settings, BVOP : 2
    Format settings, QPel : No
    Format settings, GMC : No warppoints
    Format settings, Matrix : Default (H.263)
    Muxing mode : Packed bitstream
    Codec ID : XVID
    Codec ID/Hint : XviD
    Duration : 10 min 9 s
    Bit rate : 1 196 kb/s
    Width : 704 pixels
    Height : 576 pixels
    Display aspect ratio : 5: 4
    Frame rate : 25.000 FPS
    Standard : PAL
    Color space : YUV
    Chroma subsampling : 4: 2: 0
    Bit depth : 8 bits
    Scan type : Progressive
    Compression mode : Lossy
    Bits/(Pixel*Frame) : 0.115
    Stream size : 104 MiB (90%)
    Writing library : XviD 64
    Audio
    ID : 1
    Format : MPEG Audio
    Format version : Version 1
    Format profile : Layer 3
    Mode : Joint stereo
    Mode extension : MS Stereo
    Codec ID : 55
    Codec ID/Hint : MP3
    Duration : 10 min 9 s
    Bit rate mode : Constant
    Bit rate : 128 kb/s
    Channel(s) : 2 channels
    Sampling rate : 48.0 kHz
    Compression mode : Lossy
    Stream size : 11.1 MiB (10%)
    Alignment : Split accross interleaves
    Interleave, duration : 40 ms (1.00 video frame)
    Interleave, preload duratio : 500 ms
    ------------------------------------------------------------------------------------------------------
    General
    Complete name : TVRipSpokoinoinochi_10_09_2009.avi
    Format : AVI
    Format/Info : Audio Video Interleave
    File size : 40.3 MiB
    Duration : 9 min 35 s
    Overall bit rate : 588 kb/s
    Movie name : Р РѕСЃРёСЏ
    Writing application : Lavf55.37.101
    Comment : Recorded from Behold TV v5.02
    Video
    ID : 0
    Format : xvid
    Codec ID : xvid
    Duration : 9 min 32 s
    Bit rate : 450 kb/s
    Width : 704 pixels
    Height : 576 pixels
    Display aspect ratio : 1.222
    Frame rate : 25.000 FPS
    Standard : PAL
    Scan type : Progressive
    Bits/(Pixel*Frame) : 0.044
    Stream size : 30.7 MiB (76%)
    Audio
    ID : 1
    Format : MPEG Audio
    Format version : Version 1
    Format profile : Layer 3
    Mode : Joint stereo
    Mode extension : MS Stereo
    Codec ID : 55
    Codec ID/Hint : MP3
    Duration : 9 min 35 s
    Bit rate mode : Constant
    Bit rate : 128 kb/s
    Channel(s) : 2 channels
    Sampling rate : 44.1 kHz
    Compression mode : Lossy
    Stream size : 8.78 MiB (22%)
    Alignment : Aligned on interleaves
    Interleave, duration : 26 ms (0.65 video frame)
    Interleave, preload duratio : 130 ms


    Скриншоты для ознакомления




    Онлайн видео Майк Эскью, Роб Истуэй



    Спокойной ночи, малыши! (2009, 2015) SATRip, TVRip (83 выпусков)
    Рейтинг →
     (голосов: 1, оценка 3/5, голосовать можно 1 раз )

    Другие торренты по теме:

  • Спокойной ночи, малыши! (2015) HDTV [1080i] (выпуск 1 из ) (Обновляемая) скачать через торрент бесплатно
  • Спокойной ночи, малыши! (2014) SATRip (117 выпусков) скачать через торрент бесплатно
  • Дамы и господа, спокойной ночи! / Signore e signori, buonanotte (1976) DVDRip [H.264]
  • Кэти Уильямс | Скажи машине «спокойной ночи» (2019) [FB2]
  • Спокойной ночи, малыши. вып. 1-50 (С 1964 по настоящее время) TVRip


    • Комментарии (0):

      Информация

      Информация

        Посетители, находящиеся в группе Гости, не могут оставлять комментарии в данной новости.

        ↓ Меню




        ↓ Опрос

        Вы добавили сайт в закладки?
        Да
        Нет


        Популярное

        Рик и Морти / Rick and Morty (2015) WEB-DL [H.264 / 1080p] (Сезон 2, серии 1-10 из 10) Сыендук [EN / RU Sub] скачать через торрент бесплатно

        (скачиваний: 213)
        Жила-была царевна (2015-2019) WEB-DLRip [H.264 / 720p-LQ] (сезон 1, серии 1-18 из 26) [Обновляемая]

        (скачиваний: 151)
        Рик и Морти / Rick and Morty (2013) BDRip [H.264 / 720p-LQ] (сезон 1, серии 1-11 из 11) Сыендук

        (скачиваний: 146)
        Снежная Королева: Хранители Чудес (2019) WEB-DLRip [H.264 / 720p-LQ] (сезон 1, серия 1-4 из 26) [Обновляемая]

        (скачиваний: 146)
        Футурама / Futurama (1999-2013) DVDRip (7 Сезонов, 140 серии) скачать через торрент бесплатно

        (скачиваний: 132)
        Рик и Морти / Rick and Morty (2013) BDRip [H.264 / 1080p] (Сезон 1, серии 1-11 из 11) Сыендук [EN Sub] скачать через торрент бесплатно

        (скачиваний: 123)
        Рик и Морти / Rick and Morty (2013-2015) BDRip [H.264] (сезон 1-2, серии 1-21 из 21) Сыендук

        (скачиваний: 122)
        Малышарики (2015-2019) WEB-DL [H.264 / 1080p-LQ] (серии 1-154 из 208) [Обновляемая]

        (скачиваний: 120)
        Король Лев / The Lion King (2019) BDRip 3D [H.264 / 1080p] [Вертикальная анаморфная стереопара]

        (скачиваний: 78)
        Металионы / Metalions (2018-2019) WEB-DLRip [H.264 / 720p-LQ] (сезон 1, серии 1-52 из 52) [Обновляемая]

        (скачиваний: 66)