.
Авторизация | Регистрация
bitok.xyz
» » Дружные мопсы / Puppy Dog Pals (2017) SATRip (Сезон 1, серий 16 из ) [Обновляемая] торрент скачать бесплатно


    Дружные мопсы / Puppy Dog Pals (2017) SATRip (Сезон 1, серий 16 из ) [Обновляемая] торрент скачать бесплатно

    Дата: 12-12-2017, 05:00 | .torrent скачали: 161

    Дружные мопсы / Puppy Dog Pals (2017) SATRip (Сезон 1, серий 16 из ) [Обновляемая]Производство: США
    Жанр: Компьютерная анимация
    Режиссер: Дон Маккиннон, Тревор Уолл, Стефани Арнетт

    Описание

    Весёлым братьям-мопсам Бинго и Ролли никогда не сидится на месте. Каждый день они выдумывают новые игры и развлечения, путешествуют по всему миру, узнают много нового и интересного о культуре и традиция разных стран. Но как бы далеко щенки не отправились, они всегда возвращаются домой к своему любимому хозяину — изобретателю Бобу и лучшим друзьям: кошке Шипе и роботу-собаке по кличке Г. А. В.

    Возраст: 0+ (для любой зрительской аудитории)
    Рейтинг MPAA: G (нет возрастных ограничений)
    Дата мировой премьеры: 14 апреля 2017
    Дата российской премьеры: 14 октября 2017
    Продолжительность: ~ 00: 11: 45 + ~ 00: 11: 15 серия
    Качество видео: SATRip
    Перевод: Полный дубляж, вкл. песни
    Субтитры: Отсутствуют
    Видео: Xvid, 704x400, ~1200 kbps
    Аудио: MP3, 2 ch, 192 kbps
    General
    Complete name : Дружные мопсы1a-Пёс-поросёнок.avi
    Format : AVI
    Format/Info : Audio Video Interleave
    File size : 118 MiB
    Duration : 11 min 45 s
    Overall bit rate : 1 400 kb/s
    Writing library : VirtualDub build 40464/release
    Video
    ID : 0
    Format : MPEG-4 Visual
    Format profile : Advanced Simple@L5
    Format settings : BVOP2
    Format settings, BVOP : 2
    Format settings, QPel : No
    Format settings, GMC : No warppoints
    Format settings, Matrix : Default (H.263)
    Muxing mode : Packed bitstream
    Codec ID : XVID
    Codec ID/Hint : XviD
    Duration : 11 min 45 s
    Bit rate : 1 199 kb/s
    Width : 704 pixels
    Height : 400 pixels
    Display aspect ratio : 16: 9
    Frame rate : 25.000 FPS
    Color space : YUV
    Chroma subsampling : 4: 2: 0
    Bit depth : 8 bits
    Scan type : Progressive
    Compression mode : Lossy
    Bits/(Pixel*Frame) : 0.170
    Stream size : 101 MiB (86%)
    Writing library : XviD 73
    Audio
    ID : 1
    Format : MPEG Audio
    Format version : Version 1
    Format profile : Layer 3
    Format settings : Joint stereo
    Mode : Joint stereo
    Codec ID : 55
    Codec ID/Hint : MP3
    Duration : 11 min 45 s
    Bit rate mode : Constant
    Bit rate : 192 kb/s
    Channel(s) : 2 channels
    Sampling rate : 48.0 kHz
    Compression mode : Lossy
    Stream size : 16.1 MiB (14%)
    Alignment : Split accross interleaves
    Interleave, duration : 40 ms (1.00 video frame)
    Interleave, preload duratio : 500 ms


    Онлайн видео Дружные мопсы



    Дружные мопсы/Puppy Dog Pals (2017) SATRip (Сезон 1, серий 16 из ) [Обновляемая]
    Рейтинг →
     (голосов: 1, оценка 3/5, голосовать можно 1 раз )

    Другие торренты по теме:

  • Дружные мопсы / Puppy Dog Pals (2018) SATRip (Сезон 2, серий 6 из 26) [Обновляемая]


    • Комментарии (0):

      Информация

      Информация

        Посетители, находящиеся в группе Гости, не могут оставлять комментарии в данной новости.

        ↓ Меню




        ↓ Опрос

        Вы добавили сайт в закладки?
        Да
        Нет


        Популярное

        Рик и Морти / Rick and Morty (2015) WEB-DL [H.264 / 1080p] (Сезон 2, серии 1-10 из 10) Сыендук [EN / RU Sub] скачать через торрент бесплатно

        (скачиваний: 213)
        Жила-была царевна (2015-2019) WEB-DLRip [H.264 / 720p-LQ] (сезон 1, серии 1-18 из 26) [Обновляемая]

        (скачиваний: 151)
        Рик и Морти / Rick and Morty (2013) BDRip [H.264 / 720p-LQ] (сезон 1, серии 1-11 из 11) Сыендук

        (скачиваний: 146)
        Снежная Королева: Хранители Чудес (2019) WEB-DLRip [H.264 / 720p-LQ] (сезон 1, серия 1-4 из 26) [Обновляемая]

        (скачиваний: 146)
        Футурама / Futurama (1999-2013) DVDRip (7 Сезонов, 140 серии) скачать через торрент бесплатно

        (скачиваний: 132)
        Рик и Морти / Rick and Morty (2013) BDRip [H.264 / 1080p] (Сезон 1, серии 1-11 из 11) Сыендук [EN Sub] скачать через торрент бесплатно

        (скачиваний: 123)
        Рик и Морти / Rick and Morty (2013-2015) BDRip [H.264] (сезон 1-2, серии 1-21 из 21) Сыендук

        (скачиваний: 122)
        Малышарики (2015-2019) WEB-DL [H.264 / 1080p-LQ] (серии 1-154 из 208) [Обновляемая]

        (скачиваний: 120)
        Король Лев / The Lion King (2019) BDRip 3D [H.264 / 1080p] [Вертикальная анаморфная стереопара]

        (скачиваний: 78)
        Металионы / Metalions (2018-2019) WEB-DLRip [H.264 / 720p-LQ] (сезон 1, серии 1-52 из 52) [Обновляемая]

        (скачиваний: 66)