.
Авторизация | Регистрация
bitok.xyz
» » Космический рубеж / Final Space (2018) WEB-DLRip [H.264 / 1080p] (Сезон 1, Серии 10 из 10) Кубик в Кубе торрент скачать бесплатно


    Космический рубеж / Final Space (2018) WEB-DLRip [H.264 / 1080p] (Сезон 1, Серии 10 из 10) Кубик в Кубе торрент скачать бесплатно

    Дата: 4-06-2018, 05:00 | .torrent скачали: 405

    Космический рубеж / Final Space (2018) WEB-DLRip [H.264 / 1080p] (Сезон 1, Серии 10 из 10) Кубик в КубеРежиссер: Майк Робертс, Олэн Роджерс
    Персонажи: Дэвид Теннант, Митчелл Дэвис, Коути Гэлловэй, Олэн Роджерс, Джейк Сидвелл

    Описание

    Астронавт по имени Гэри и его уничтожающий планеты приятель, называемый себя Мункейк, приступают к путешествиям по космосу, чтобы разгадать тайну того, где вселенная заканчивается и действительно ли она существует.

    Дата мировой премьеры: 26 февраля 2018
    Релиз от: CasStudio.TV
    Продолжительность: 00: 22: 00 х серия
    Качество видео: WEB-DLRip
    Перевод: Двуголосый закадровый, профессиональный
    Озвучка/Автор перевода: Кубик в Кубе
    Субтитры: Английские
    Видео: AVC/H.264, 1920x1080, ~9 740 kbps
    Аудио: AC3, 6 ch, 640 kbps
    Frame rate : 23.976 (24000/1001) FPS
    Color space : YUV
    Chroma subsampling : 4: 2: 0
    Bit depth : 8 bits
    Scan type : Progressive
    Bits/(Pixel*Frame) : 0.196
    Stream size : 1.47 GiB (87%)
    Language : English
    Default : Yes
    Forced : Yes
    Color range : Limited
    Color primaries : BT.709
    Transfer characteristics : BT.709
    Matrix coefficients : BT.709
    Audio #1
    ID : 2
    Format : AC-3
    Format/Info : Audio Coding 3
    Codec ID : A_AC3
    Duration : 21 min 40 s
    Bit rate mode : Constant
    Bit rate : 640 kb/s
    Channel(s) : 6 channels
    Channel positions : Front: L C R, Side: L R, LFE
    Sampling rate : 48.0 kHz
    Frame rate : 31.250 FPS (1536 SPF)
    Bit depth : 16 bits
    Compression mode : Lossy
    Stream size : 99.2 MiB (6%)
    Language : Russian
    Service kind : Complete Main
    Default : Yes
    Forced : Yes
    Audio #2
    ID : 3
    Format : E-AC-3
    Format/Info : Enhanced Audio Coding 3
    Codec ID : A_EAC3
    Duration : 21 min 40 s
    Bit rate mode : Constant
    Bit rate : 640 kb/s
    Channel(s) : 6 channels
    Channel positions : Front: L C R, Side: L R, LFE
    Sampling rate : 48.0 kHz
    Frame rate : 187.500 FPS (256 SPF)
    Compression mode : Lossy
    Stream size : 99.2 MiB (6%)
    Language : English
    Service kind : Complete Main
    Default : No
    Forced : No
    Text
    ID : 4
    Format : UTF-8
    Codec ID : S_TEXT/UTF8
    Codec ID/Info : UTF-8 Plain Text
    Language : English
    Default : No
    Forced : No

    Скриншоты для ознакомления



    Все одноименные релизы в Клубе
    Время раздачи: Космический рубеж/Final Space (до появления первых 3-5 скачавших)

    Онлайн видео Космический рубеж



    Космический рубеж/Final Space (2018) WEB-DLRip [H.264/1080p] (Сезон 1, Серии 10 из 10) Кубик в Кубе
    Рейтинг →
     (голосов: 1, оценка 4/5, голосовать можно 1 раз )

    Другие торренты по теме:

  • Космический рубеж / Final Space (2018) WEB-DLRip [H.264 / 1080p] (Сезон 1, Серии 1-5 из 10 + Пилот) NewStation
  • Космический рубеж / Final Space (2019) WEB-DL [H.264 / 720p] (Сезон 2, Серии 1-2 из 10) NewStation
  • Космический рубеж / Final Space (2019) WEB-DL [H.264 / 1080p] (Сезон 2, Серии 1-2 из 10) NewStation
  • Космический рубеж / Final Space (2019) WEB-DL (Сезон 2, Серии 1-2 из 10) NewStation


    • Комментарии (0):

      Информация

      Информация

        Посетители, находящиеся в группе Гости, не могут оставлять комментарии в данной новости.

        ↓ Меню




        ↓ Опрос

        Вы добавили сайт в закладки?
        Да
        Нет


        Популярное