.
Авторизация | Регистрация
bitok.xyz
» » Скуби-Ду и Бэтмен: Отважный и смелый / Scooby-Doo & Batman: The Brave and the Bold (2018) WEB-DLRip [H.264 / 1080p-LQ ] (MVO) торрент скачать бесплатно


    Скуби-Ду и Бэтмен: Отважный и смелый / Scooby-Doo & Batman: The Brave and the Bold (2018) WEB-DLRip [H.264 / 1080p-LQ ] (MVO) торрент скачать бесплатно

    Дата: 29-09-2018, 05:00 | .torrent скачали: 2

    Скуби-Ду и Бэтмен: Отважный и смелый / Scooby-Doo & Batman: The Brave and the Bold (2018) WEB-DLRip [H.264 / 1080p-LQ ] (MVO)Производство: США/DC Entertainment, Hanna-Barbera Productions, Warner Bros. Animation
    Жанр: ужасы, боевик, детектив, семейный
    Режиссер: Джейк Касторена
    Персонажи: Фрэнк Уэлкер, Грэй ДеЛисл, Мэттью Лиллард, Дидрих Бадер, Кейт Микуччи, Джефф Беннетт, Джеффри Комбс, Джон Ди Маджио, Ника Футтерман, Николас Гест

    Описание

    Бэтмен объединяется с бандой Скуби Ду, когда злодеи из обоих миров, задумали чтобы нанести ущерб городу.

    Дата мировой премьеры: 9 января 2018
    Продолжительность: 01: 15: 09
    Качество видео: WEB-DLRip
    Перевод: Многоголосый закадровый, любительский (колобок)
    Субтитры: Английские (full)
    Видео: AVC/H.264, 1912х1072, ~5022 Kbps
    Аудио 1: AC3, 6 ch, 384 Kbps - Русский
    Аудио 2: AC3, 6 ch, 384 Kbps - Английский
    Общее
    Уникальный идентификатор : 214595892281377364969003775287058287326 (0xA171AA5D780145B5ABD725996A0CCADE)
    Полное имя : C: UsersUserDocumentsZona DownloadsScooby-Doo and Batman The Brave and the Bold 2018 1080p WEB-DL.mkv
    Формат : Matroska
    Версия формата : Version 4
    Размер файла : 2, 94 Гбайт
    Продолжительность : 1 ч. 15 м.
    Общий поток : 5600 Кбит/сек
    Дата кодирования : UTC 2018-01-18 06: 08: 40
    Программа кодирования : mkvmerge v15.0.0 (\'Duel with the Devil\') 64-bit
    Библиотека кодирования : libebml v1.3.5 + libmatroska v1.4.5
    Видео
    Идентификатор : 1
    Формат : AVC
    Формат/Информация : Advanced Video Codec
    Профиль формата : High@L4
    Настройки формата : CABAC/4 Ref Frames
    Параметр CABAC формата : Да
    Параметр RefFrames формата : 4 кадра
    Идентификатор кодека : V_MPEG4/ISO/AVC
    Продолжительность : 1 ч. 15 м.
    Битрейт : 5022 Кбит/сек
    Ширина : 1912 пикселей
    Высота : 1072 пикселя
    Соотношение сторон : 16: 9
    Режим частоты кадров : Постоянный
    Частота кадров : 23, 976 кадра/сек
    Цветовое пространство : YUV
    Субдискретизация насыщенности : 4: 2: 0
    Битовая глубина : 8 бит
    Тип развёртки : Прогрессивная
    Бит/(Пиксели*Кадры) : 0.102
    Размер потока : 2, 64 Гбайт (90%)
    Язык : English
    Default : Да
    Forced : Нет
    Цветовой диапазон : Limited
    Основные цвета : BT.709
    Характеристики трансфера : BT.709
    Коэффициенты матрицы : BT.709
    Аудио #1
    Идентификатор : 2
    Формат : AC-3
    Формат/Информация : Audio Coding 3
    Коммерческое название : Dolby Digital
    Идентификатор кодека : A_AC3
    Продолжительность : 1 ч. 15 м.
    Вид битрейта : Постоянный
    Битрейт : 192 Кбит/сек
    Каналы : 2 канала
    Channel layout : L R
    Частота : 48, 0 КГц
    Частота кадров : 31, 250 кадров/сек (1536 SPF)
    Битовая глубина : 16 бит
    Метод сжатия : С потерями
    Размер потока : 103 Мбайт (3%)
    Язык : Russian
    ServiceKind/String : Complete Main
    Default : Да
    Forced : Нет
    Аудио #2
    Идентификатор : 3
    Формат : AC-3
    Формат/Информация : Audio Coding 3
    Коммерческое название : Dolby Digital
    Идентификатор кодека : A_AC3
    Продолжительность : 1 ч. 15 м.
    Вид битрейта : Постоянный
    Битрейт : 384 Кбит/сек
    Каналы : 6 каналов
    Channel layout : L R C LFE Ls Rs
    Частота : 48, 0 КГц
    Частота кадров : 31, 250 кадров/сек (1536 SPF)
    Битовая глубина : 16 бит
    Метод сжатия : С потерями
    Размер потока : 206 Мбайт (7%)
    Язык : English
    ServiceKind/String : Complete Main
    Default : Нет
    Forced : Нет
    Текст
    Идентификатор : 4
    Формат : UTF-8
    Идентификатор кодека : S_TEXT/UTF8
    Идентификатор кодека/Информация : UTF-8 Plain Text
    Продолжительность : 1 ч. 11 м.
    Битрейт : 63 бит/сек
    ElementCount : 1038
    Размер потока : 33, 2 Кбайт (0%)
    Язык : English
    Default : Нет
    Forced : Нет
    Меню
    00: 00: 00.000 : en: 1
    00: 10: 33.000 : en: 2
    00: 22: 40.000 : en: 3
    00: 31: 15.000 : en: 4
    00: 41: 52.000 : en: 5
    00: 53: 45.000 : en: 6
    01: 03: 07.000 : en: 7
    01: 12: 08.000 : en: 8

    Скриншоты для ознакомления



    Все одноименные релизы в Клубе
    Время раздачи: 24/7 (до появления первых 3-5 скачавших)

    Онлайн видео Скуби-Ду и Бэтмен: Отважный и смелый



    Скуби-Ду и Бэтмен: Отважный и смелый/Scooby-Doo & Batman: The Brave and the Bold (2018) WEB-DLRip [H.264/1080p-LQ ] (MVO)
    Рейтинг →
     (голосов: 1, оценка 3/5, голосовать можно 1 раз )

    Другие торренты по теме:

  • Скуби-Ду: Франкен-монстр / Scooby-Doo! Frankencreepy (2014) BDRemux (1080p) скачать через торрент бесплатно
  • Скуби-Ду и KISS: Тайна рок-н-ролла / Scooby-Doo! And Kiss: Rock and Roll Mystery (2015) BDRip [H.264 / 720p] скачать через торрент бесплатно
  • Скуби-Ду и KISS: Тайна рок-н-ролла / Scooby-Doo! And Kiss: Rock and Roll Mystery (2015) HDRip скачать через торрент бесплатно
  • Скуби-Ду и KISS: Тайна рок-н-ролла / Scooby-Doo! And Kiss: Rock and Roll Mystery (2015) BDRip [H.264 / 1080p] скачать через торрент бесплатно
  • Скуби-Ду и KISS: Тайна рок-н-ролла / Scooby-Doo! And Kiss: Rock and Roll Mystery (2015) BDRemux [H.264 / 1080p] скачать через торрент бесплатно
  • Скуби-Ду и KISS: Тайна рок-н-ролла / Scooby-Doo! And Kiss: Rock and Roll Mystery (2015) BDRip [576p] iPad скачать через торрент бесплатно
  • Скуби-Ду и KISS: Тайна рок-н-ролла / Scooby-Doo! And Kiss: Rock and Roll Mystery (2015) BDRip [720p] ATV скачать через торрент бесплатно
  • Скуби-Ду и KISS: Тайна рок-н-ролла / Scooby-Doo! And Kiss: Rock and Roll Mystery (2015) BDRip [1080p] ATV скачать через торрент бесплатно


    • Комментарии (0):

      Информация

      Информация

        Посетители, находящиеся в группе Гости, не могут оставлять комментарии в данной новости.

        ↓ Меню




        ↓ Опрос

        Вы добавили сайт в закладки?
        Да
        Нет


        Популярное

        Малышарики (2015-2019) WEB-DL [H.264 / 1080p-LQ] (серии 1-154 из 208) [Обновляемая]

        (скачиваний: 93)
        Футурама / Futurama (1999-2013) DVDRip (7 Сезонов, 140 серии) скачать через торрент бесплатно

        (скачиваний: 91)
        Жила-была царевна (2015-2019) WEB-DLRip [H.264 / 720p-LQ] (сезон 1, серии 1-18 из 26) [Обновляемая]

        (скачиваний: 53)
        Металионы / Metalions (2018-2019) WEB-DLRip [H.264 / 720p-LQ] (сезон 1, серии 1-52 из 52) [Обновляемая]

        (скачиваний: 45)
        Рик и Морти / Rick and Morty (2015) WEB-DL [H.264 / 1080p] (Сезон 2, серии 1-10 из 10) Сыендук [EN / RU Sub] скачать через торрент бесплатно

        (скачиваний: 44)
        В гостях у сказки (сборник 56 фильмов) (1939-2009) DVDRip

        (скачиваний: 38)
        Рик и Морти / Rick and Morty (2013) BDRip [H.264 / 1080p] (Сезон 1, серии 1-11 из 11) Сыендук [EN Sub] скачать через торрент бесплатно

        (скачиваний: 36)
        Три кота (2018) WEB-DLRip [H.264 / 720p-LQ] (сезон 3, серии 105-106 из 156)

        (скачиваний: 34)
        Рик и Морти / Rick and Morty (2013) BDRip [H.264 / 720p-LQ] (сезон 1, серии 1-11 из 11) Сыендук

        (скачиваний: 28)
        Королевская академия / Regal Academy (2016) SATRip [H.264] (Сезон 1, 26 серий из 26) [UKR]

        (скачиваний: 24)