.
Авторизация | Регистрация
bitok.xyz
Торрент скачать бесплатно Мультфильмы торрент скачать Духи Рождества / Рождественская история / Рождественская песнь / A Christmas Carol (1997) DVDRip торрент скачать бесплатно


    Духи Рождества / Рождественская история / Рождественская песнь / A Christmas Carol (1997) DVDRip торрент скачать бесплатно

    Дата: 2-12-2018, 05:00 | .torrent скачали: 2

    Духи Рождества / Рождественская история / Рождественская песнь / A Christmas Carol (1997) DVDRipПроизводство: США/DiC Enterprises
    Жанр: Фэнтези, Драма, Семейный
    Режиссер: Стэн Филлипс

    Описание

    Похоронив своего давнего друга и партнера по бизнесу, Эбенезер Скрудж, и так не отличавшийся особой душевной добротой, впал в уныние и возненавидел весь окружающий мир. Особенно достается его верному и безответному помощнику Бобу Крэтчиту. Но когда в Рождественскую ночь Скруджу являются Духи Рождества, они открывают ему глаза на его прошлое, настоящее и будущее. Скрудж понимает, что в погоне за богатством лишился самого главного: счастья любить и быть любимым. Умоляя Духов дать ему второй шанс, Скрудж обещает изменить образ жизни и навсегда впустить Рождество к себе в сердце..

    Рейтинг MPAA: PG (рекомендуется присутствие родителей)
    Продолжительность: 01: 09: 55
    Качество видео: DVDRip
    Перевод: Профессиональный (дублированный) - Канал Gulli
    Видео: Xvid, 640x480, ~2029 Kbps
    Аудио: AC3, 2 ch, 192 Kbps
    Общее
    Полное имя : A.Christmas.Carol.1997.DVDRip.avi
    Формат : AVI
    Формат/Информация : Audio Video Interleave
    Размер файла : 1, 09 Гбайт
    Продолжительность : 1 ч. 9 м.
    Общий поток : 2230 Кбит/сек
    Программа кодирования : VirtualDubMod 1.5.10.2 (build 2540/release)
    Библиотека кодирования : VirtualDubMod build 2540/release
    Видео
    Идентификатор : 0
    Формат : MPEG-4 Visual
    Профиль формата : Advanced Simple@L5
    Настройки формата : BVOP2/Custom Matrix
    Параметр BVOP формата : 2
    Параметр QPel формата : Нет
    Параметр GMC формата : Без точки перехода
    Параметр матрицы формата : Выборочная
    Идентификатор кодека : XVID
    Идентификатор кодека/Подсказка : XviD
    Продолжительность : 1 ч. 9 м.
    Битрейт : 2029 Кбит/сек
    Ширина : 640 пикселей
    Высота : 480 пикселей
    Соотношение сторон : 4: 3
    Частота кадров : 23, 976 (24000/1001) кадра/сек
    Цветовое пространство : YUV
    Субдискретизация насыщенности : 4: 2: 0
    Битовая глубина : 8 бит
    Тип развёртки : Прогрессивная
    Метод сжатия : С потерями
    Бит/(Пиксели*Кадры) : 0.275
    Размер потока : 1015 Мбайт (91%)
    Библиотека кодирования : XviD 73
    Аудио
    Идентификатор : 1
    Формат : AC-3
    Формат/Информация : Audio Coding 3
    Коммерческое название : Dolby Digital
    Идентификатор кодека : 2000
    Продолжительность : 1 ч. 9 м.
    Вид битрейта : Постоянный
    Битрейт : 192 Кбит/сек
    Каналы : 2 канала
    Channel layout : L R
    Частота : 48, 0 КГц
    Частота кадров : 31, 250 кадров/сек (1536 SPF)
    Битовая глубина : 16 бит
    Метод сжатия : С потерями
    Размер потока : 96, 0 Мбайт (9%)
    Выравнивание : Разделение по промежуткам
    Продолжительность промежутка : 42 мс. (1, 00 видеокадр)
    Время предзагрузки промежутка : 500 мс.
    Заголовок : DUB
    ServiceKind/String : Complete Main

    Скриншоты для ознакомления




    Все одноименные релизы в Клубе
    Время раздачи: по возможности (до появления первых 3-5 скачавших)

    Онлайн видео Духи Рождества


    Духи Рождества / Рождественская история / Рождественская песнь / A Christmas Carol (1997) DVDRip торрент скачать бесплатно
    Рейтинг →
     (голосов: 1, оценка 4/5, голосовать можно 1 раз )

    Другие торренты по теме:

  • Духи Рождества / A Christmas Carol (1999) DVD5
  • Духи Рождества / A Christmas Carol (1999) HDTVRip [H.264 / 1080p-LQ]


    • Комментарии (0):

      Информация

      Информация

        Посетители, находящиеся в группе Гости, не могут оставлять комментарии в данной новости.

        ↓ Меню




        ↓ Опрос

        Вы добавили сайт в закладки?
        Да
        Нет


        Популярное

        М.Ю. Демидова | ЕГЭ-2020. Физика. 30 типовых вариантов (2020) [PDF]

        (скачиваний: 119)
        Малышарики (2015-2019) WEB-DL [H.264 / 1080p-LQ] (серии 1-154 из 208) [Обновляемая]

        (скачиваний: 111)
        Футурама / Futurama (1999-2013) DVDRip (7 Сезонов, 140 серии) скачать через торрент бесплатно

        (скачиваний: 58)
        Рик и Морти / Rick and Morty (2015) WEB-DL [H.264 / 1080p] (Сезон 2, серии 1-10 из 10) Сыендук [EN / RU Sub] скачать через торрент бесплатно

        (скачиваний: 45)
        Жила-была царевна (2015-2019) WEB-DLRip [H.264 / 720p-LQ] (сезон 1, серии 1-18 из 26) [Обновляемая]

        (скачиваний: 34)
        Лунтик и его друзья (2013-2017) WEB-DLRip 7,8,9 сезон (390-488 серии)[Обновляемая]

        (скачиваний: 34)
        Металионы / Metalions (2018-2019) WEB-DLRip [H.264 / 720p-LQ] (сезон 1, серии 1-52 из 52) [Обновляемая]

        (скачиваний: 32)
        Роботы-пожарные / Fire Robo (2016) WEB-DLRip [H.264 / 720p-LQ] (сезон 1, серии 1-26 из 26) [Обновляемая]

        (скачиваний: 25)
        Рик и Морти / Rick and Morty (2013-2015) BDRip [H.264] (сезон 1-2, серии 1-21 из 21) Сыендук

        (скачиваний: 25)
        Снежная Королева: Хранители Чудес (2019) WEB-DLRip [H.264 / 720p-LQ] (сезон 1, серия 1-4 из 26) [Обновляемая]

        (скачиваний: 25)