.
Авторизация | Регистрация
bitok.xyz
» » Непьющий воробей (1960) TVRip торрент скачать бесплатно


    Непьющий воробей (1960) TVRip торрент скачать бесплатно

    Дата: 27-09-2019, 05:00 | .torrent скачали: 6

    Непьющий воробей (1960) TVRipПроизводство: СССР/Союзмультфильм
    Жанр: Мультфильм, Рисованная анимация, Короткометражный, для взрослых
    Режиссер: Леонид Амальрик

    Актеры
    Георгий Вицин, Борис Оленин, Геннадий Дудник, Елена Понсова, Тамара Дмитриева, Леонид Пирогов, Клементина Ростовцева, Сергей Мартинсон, Григорий Шпигель

    Описание

    По басне С. Михалкова о трезвеннике Воробье, которого друзья на торжестве заставили пить, о том, как недопустимо спаивать трезвенников, и о том, как необходимо проявлять твердость.

    Возраст: 0+ (для любой зрительской аудитории)
    Релиз от: Алехаndr
    Продолжительность: 00: 15: 46
    Качество видео: TVRip
    Субтитры: Отсутствуют
    Видео: Xvid, 720x540 (4: 3), ~1595 Kbps
    Аудио: MP3, 1 ch, 128 Kbps
    Общее
    Полное имя : D: Непьющий воробей (1960).by.Алехаndr.avi
    Формат : AVI
    Формат/Информация : Audio Video Interleave
    Размер файла : 196 Мбайт
    Продолжительность : 15 м. 46 с.
    Общий поток : 1737 Кбит/сек
    Программа кодирования : Lavf58.20.100
    Видео
    Идентификатор : 0
    Формат : MPEG-4 Visual
    Профиль формата : Advanced Simple@L5
    Настройки формата : BVOP2
    Параметр BVOP формата : 2
    Параметр QPel формата : Нет
    Параметр GMC формата : Без точки перехода
    Параметр матрицы формата : Default (H.263)
    Идентификатор кодека : XVID
    Идентификатор кодека/Подсказка : XviD
    Продолжительность : 15 м. 45 с.
    Битрейт : 1596 Кбит/сек
    Ширина : 720 пикселей
    Высота : 540 пикселей
    Соотношение сторон : 4: 3
    Частота кадров : 25, 000 кадров/сек
    Цветовое пространство : YUV
    Субдискретизация насыщенности : 4: 2: 0
    Битовая глубина : 8 бит
    Тип развёртки : Прогрессивная
    Метод сжатия : С потерями
    Бит/(Пиксели*Кадры) : 0.164
    Размер потока : 180 Мбайт (92%)
    Библиотека кодирования : XviD 67
    Аудио
    Идентификатор : 1
    Формат : MPEG Audio
    Версия формата : Version 1
    Профиль формата : Layer 3
    Идентификатор кодека : 55
    Идентификатор кодека/Подсказка : MP3
    Продолжительность : 15 м. 46 с.
    Вид битрейта : Постоянный
    Битрейт : 128 Кбит/сек
    Каналы : 1 канал
    Частота : 48, 0 КГц
    Метод сжатия : С потерями
    Размер потока : 14, 4 Мбайт (7%)
    Выравнивание : Соединение по промежуткам
    Продолжительность промежутка : 24 мс. (0, 60 видеокадр)
    Библиотека кодирования : LAMEUUU#xge36ˆFÌ1Í

    Скриншоты для ознакомления



    Все одноименные релизы в Клубе
    Время раздачи: 24/7 (круглосуточно) (до появления первых 3-5 скачавших)

    Онлайн видео Кристине Нёстлингер



    Непьющий воробей (1960) TVRip
    Рейтинг →
     (голосов: 1, оценка 4/5, голосовать можно 1 раз )

    Другие торренты по теме:



      Комментарии (0):

      Информация

      Информация

        Посетители, находящиеся в группе Гости, не могут оставлять комментарии в данной новости.

        ↓ Меню




        ↓ Опрос

        Вы добавили сайт в закладки?
        Да
        Нет


        Популярное

        Футурама / Futurama (1999-2013) DVDRip (7 Сезонов, 140 серии) скачать через торрент бесплатно

        (скачиваний: 74)
        Малышарики (2015-2019) WEB-DL [H.264 / 1080p-LQ] (серии 1-154 из 208) [Обновляемая]

        (скачиваний: 63)
        Жила-была царевна (2015-2019) WEB-DLRip [H.264 / 720p-LQ] (сезон 1, серии 1-18 из 26) [Обновляемая]

        (скачиваний: 41)
        Металионы / Metalions (2018-2019) WEB-DLRip [H.264 / 720p-LQ] (сезон 1, серии 1-52 из 52) [Обновляемая]

        (скачиваний: 34)
        Рик и Морти / Rick and Morty (2013) BDRip [H.264 / 1080p] (Сезон 1, серии 1-11 из 11) Сыендук [EN Sub] скачать через торрент бесплатно

        (скачиваний: 29)
        Три кота (2018) WEB-DLRip [H.264 / 720p-LQ] (сезон 3, серии 105-106 из 156)

        (скачиваний: 27)
        В гостях у сказки (сборник 56 фильмов) (1939-2009) DVDRip

        (скачиваний: 27)
        Спокойной ночи, малыши! (2009, 2015) SATRip, TVRip (83 выпусков)

        (скачиваний: 19)
        Роботы-пожарные / Fire Robo (2016) WEB-DLRip [H.264 / 720p-LQ] (сезон 1, серии 1-26 из 26) [Обновляемая]

        (скачиваний: 16)
        Роботы-поезда / Robot Trains (2017) WEB-DL [H.264 / 720p-LQ] (1 сезон, 32 серий из 32)

        (скачиваний: 16)