.
Авторизация | Регистрация
bitok.xyz
» » ПУПС: Поставка Уникальных Подарков Семьям / T.O.T.S. (2019) SATRip (сезон 1, серии 1-6 из 18) [обновляемая] торрент скачать бесплатно


    ПУПС: Поставка Уникальных Подарков Семьям / T.O.T.S. (2019) SATRip (сезон 1, серии 1-6 из 18) [обновляемая] торрент скачать бесплатно

    Дата: 28-09-2019, 05:00 | .torrent скачали: 6

    ПУПС: Поставка Уникальных Подарков Семьям / T.O.T.S. (2019) SATRip (сезон 1, серии 1-6 из 18) [обновляемая]Производство: США, Disney Junior
    Жанр: Мультфильм, Детский, Комедия, Приключения, Музыкальный, Компьютерная анимация
    Режиссер: Трэвис Браун, Рик Сювалл, Бекки Фридман.

    Описание

    Проект расскажет о забавных приключениях двух лучших друзей, пингвина Пипа и фламинго Фрэдди, устроившихся на работу в необычную курьерскую службу под названием Поставка Уникальных Подарков Семьям (сокращенно ПУПС). Пип и Фрэдди — новички в команде аистов, занимающихся доставкой котят, щенят, лисят и других малышей в их семьи по всему, и им предстоит многому научиться, чтобы правильно заботиться о детенышах.

    Возраст: 0+ (для любой зрительской аудитории)
    Рейтинг MPAA: G (нет возрастных ограничений)
    Дата мировой премьеры: 14 июня 2019
    Дата российской премьеры: 7 сентября 2019
    Продолжительность: ~00: 10: 56 х серия
    Качество видео: SATRip
    Перевод: Дублированный
    Субтитры: отсутствуют
    Видео: Xvid, 704x400, ~1 200 kbps
    Аудио: MP3, 2 ch, 192 Kbps
    General
    Complete name : УзнавайкаПупс1a Вы наверное пошутили.avi
    Format : AVI
    Format/Info : Audio Video Interleave
    File size : 110 MiB
    Duration : 10 min 56 s
    Overall bit rate : 1 400 kb/s
    Writing library : VirtualDub build 40463/release
    Video
    ID : 0
    Format : MPEG-4 Visual
    Format profile : Advanced Simple@L5
    Format settings : BVOP2
    Format settings, BVOP : 2
    Format settings, QPel : No
    Format settings, GMC : No warppoints
    Format settings, Matrix : Default (H.263)
    Muxing mode : Packed bitstream
    Codec ID : XVID
    Codec ID/Hint : XviD
    Duration : 10 min 56 s
    Bit rate : 1 199 kb/s
    Width : 704 pixels
    Height : 400 pixels
    Display aspect ratio : 16: 9
    Frame rate : 25.000 FPS
    Color space : YUV
    Chroma subsampling : 4: 2: 0
    Bit depth : 8 bits
    Scan type : Progressive
    Compression mode : Lossy
    Bits/(Pixel*Frame) : 0.170
    Stream size : 93.7 MiB (86%)
    Writing library : XviD 67
    Audio
    ID : 1
    Format : MPEG Audio
    Format version : Version 1
    Format profile : Layer 3
    Format settings : Joint stereo
    Codec ID : 55
    Codec ID/Hint : MP3
    Duration : 10 min 56 s
    Bit rate mode : Constant
    Bit rate : 192 kb/s
    Channel(s) : 2 channels
    Sampling rate : 48.0 kHz
    Compression mode : Lossy
    Stream size : 15.0 MiB (14%)
    Alignment : Split across interleaves
    Interleave, duration : 40 ms (1.00 video frame)
    Interleave, preload duratio : 500 ms


    Онлайн видео ПУПС: Поставка Уникальных Подарков Семьям



    ПУПС: Поставка Уникальных Подарков Семьям/T.O.T.S. (2019) SATRip (сезон 1, серии 1-6 из 18) [обновляемая]
    Рейтинг →
     (голосов: 1, оценка 5/5, голосовать можно 1 раз )

    Другие торренты по теме:



      Комментарии (0):

      Информация

      Информация

        Посетители, находящиеся в группе Гости, не могут оставлять комментарии в данной новости.

        ↓ Меню




        ↓ Опрос

        Вы добавили сайт в закладки?
        Да
        Нет


        Популярное

        Малышарики (2015-2019) WEB-DL [H.264 / 1080p-LQ] (серии 1-154 из 208) [Обновляемая]

        (скачиваний: 93)
        Футурама / Futurama (1999-2013) DVDRip (7 Сезонов, 140 серии) скачать через торрент бесплатно

        (скачиваний: 91)
        Жила-была царевна (2015-2019) WEB-DLRip [H.264 / 720p-LQ] (сезон 1, серии 1-18 из 26) [Обновляемая]

        (скачиваний: 53)
        Металионы / Metalions (2018-2019) WEB-DLRip [H.264 / 720p-LQ] (сезон 1, серии 1-52 из 52) [Обновляемая]

        (скачиваний: 45)
        Рик и Морти / Rick and Morty (2015) WEB-DL [H.264 / 1080p] (Сезон 2, серии 1-10 из 10) Сыендук [EN / RU Sub] скачать через торрент бесплатно

        (скачиваний: 44)
        В гостях у сказки (сборник 56 фильмов) (1939-2009) DVDRip

        (скачиваний: 38)
        Рик и Морти / Rick and Morty (2013) BDRip [H.264 / 1080p] (Сезон 1, серии 1-11 из 11) Сыендук [EN Sub] скачать через торрент бесплатно

        (скачиваний: 36)
        Три кота (2018) WEB-DLRip [H.264 / 720p-LQ] (сезон 3, серии 105-106 из 156)

        (скачиваний: 34)
        Рик и Морти / Rick and Morty (2013) BDRip [H.264 / 720p-LQ] (сезон 1, серии 1-11 из 11) Сыендук

        (скачиваний: 28)
        Королевская академия / Regal Academy (2016) SATRip [H.264] (Сезон 1, 26 серий из 26) [UKR]

        (скачиваний: 24)