.
Авторизация | Регистрация
bitok.xyz
» » История игрушек 4 / Toy Story 4 (2019) UHD BDRemux [H.265 / 2160p] [4K, HDR, 10-bit] [MVO] торрент скачать бесплатно


    История игрушек 4 / Toy Story 4 (2019) UHD BDRemux [H.265 / 2160p] [4K, HDR, 10-bit] [MVO] торрент скачать бесплатно

    Дата: 29-09-2019, 05:00 | .torrent скачали: 1

    История игрушек 4 / Toy Story 4 (2019) UHD BDRemux [H.265 / 2160p] [4K, HDR, 10-bit] [MVO]Производство: США/Pixar Animation Studios, Walt Disney Pictures
    Жанр: Фэнтези, Приключения, Комедия
    Режиссер: Джош Кули

    Описание

    Космический рейнджер Баз Лайтер, ковбой Вуди, собака Спиралька, тиранозавр Рекс и вся команда игрушек снова вместе, и они как никогда готовы к приключениям. С тех пор как Энди поступил в колледж, игрушки поселились в доме своей новой хозяйки Бонни. В свой первый день в школе Бонни смастерила себе из отходов новую игрушку Вилкинса, что положит начало череде событий, в которой найдется место и путешествиям с погонями, и знакомству с новыми игрушками, и встречам с некоторыми из старых друзей, и даже романтической истории.

    Возраст: 6+ (зрителям, достигшим 6 лет)
    Рейтинг MPAA: G (нет возрастных ограничений)
    Дата мировой премьеры: 11 июня 2019
    Дата российской премьеры: 20 июня 2019, WDSSPR 3D
    Релиз от: NNMClub
    Продолжительность: 01: 40: 03
    Качество видео: UHD BDRemux
    Перевод: Многоголосый профессиональный
    Субтитры: Английские
    Видео: HEVC/H.265, 3840x2160, ~38, 4 Mbps
    Аудио 1: AC3, 2 ch, 192 Kbps - Русский (MVO, HDRezka Studio)
    Аудио 2: TrueHD, 8 ch, 6192 Kbps - Английский
    Аудио 3: AC3, 6 ch, 640 Kbps - Английский
    Общее
    Уникальный идентификатор : 154698560589533326111799569799058876516 (0x7461DBE8B051D7BEE11B36900724E864)
    Полное имя : D: SpizdiliToy.Story.4.2019.BDREMUX.2160p.HDR.DOMKPAT.mkv
    Формат : Matroska
    Версия формата : Version 4
    Размер файла : 31, 8 Гбайт
    Продолжительность : 1 ч. 40 м.
    Режим общего битрейта : Переменный
    Общий поток : 45, 5 Мбит/сек
    Название фильма : Toy Story 4 2019 4K from DOMKPAT
    Дата кодирования : UTC 2019-09-28 12: 36: 50
    Программа кодирования : mkvmerge v29.0.0 (\'Like It Or Not\') 64-bit
    Библиотека кодирования : libebml v1.3.6 + libmatroska v1.4.9
    IMDB : tt1979376
    TMDB : movie/301528
    Видео
    Идентификатор : 1
    Формат : HEVC
    Формат/Информация : High Efficiency Video Coding
    Коммерческое название : HDR10
    Профиль формата : Main10@L5.1@High
    Идентификатор кодека : V_MPEGH/ISO/HEVC
    Продолжительность : 1 ч. 40 м.
    Битрейт : 38, 4 Мбит/сек
    Ширина : 3840 пикселей
    Высота : 2160 пикселей
    Соотношение сторон : 16: 9
    Режим частоты кадров : Постоянный
    Частота кадров : 23, 976 (24000/1001) кадра/сек
    Цветовое пространство : YUV
    Субдискретизация насыщенности : 4: 2: 0 (Type 2)
    Битовая глубина : 10 бит
    Бит/(Пиксели*Кадры) : 0.193
    Размер потока : 26, 8 Гбайт (84%)
    Библиотека кодирования : ATEME Titan File 3.9.0 (4.9.0.0)
    Язык : English
    Default : Да
    Forced : Нет
    Цветовой диапазон : Limited
    Основные цвета : BT.2020
    Характеристики трансфера : PQ
    Коэффициенты матрицы : BT.2020 non-constant
    MasteringDisplay_ColorPrimaries : Display P3
    MasteringDisplay_Luminance : min: 0.0000 cd/m2, max: 1000 cd/m2
    Аудио #1
    Идентификатор : 2
    Формат : AC-3
    Формат/Информация : Audio Coding 3
    Коммерческое название : Dolby Digital
    Идентификатор кодека : A_AC3
    Продолжительность : 1 ч. 40 м.
    Вид битрейта : Постоянный
    Битрейт : 192 Кбит/сек
    Каналы : 2 канала
    Channel layout : L R
    Частота : 48, 0 КГц
    Частота кадров : 31, 250 кадров/сек (1536 SPF)
    Битовая глубина : 16 бит
    Метод сжатия : С потерями
    Размер потока : 137 Мбайт (0%)
    Заголовок : MVO HDRezka Studio
    Язык : Russian
    ServiceKind/String : Complete Main
    Default : Нет
    Forced : Да
    Аудио #2
    Идентификатор : 3
    Формат : MLP FBA 16-ch
    Формат/Информация : Meridian Lossless Packing FBA with 16-channel presentation
    Коммерческое название : Dolby TrueHD with Dolby Atmos
    Идентификатор кодека : A_TRUEHD
    Продолжительность : 1 ч. 40 м.
    Вид битрейта : Переменный
    Битрейт : 6192 Кбит/сек
    Максимальный битрейт : 8532 Кбит/сек
    Каналы : 8 каналов
    Channel layout : L R C LFE Ls Rs Lb Rb
    Частота : 48, 0 КГц
    Частота кадров : 1200, 000 кадров/сек (40 SPF)
    Метод сжатия : Без потерь
    Размер потока : 4, 33 Гбайт (14%)
    Язык : English
    Default : Да
    Forced : Нет
    Number of dynamic objects : 13
    Bed channel count : 1 канал
    Bed channel configuration : LFE
    Аудио #3
    Идентификатор : 4
    Формат : AC-3
    Формат/Информация : Audio Coding 3
    Коммерческое название : Dolby Digital
    Идентификатор кодека : A_AC3
    Продолжительность : 1 ч. 40 м.
    Вид битрейта : Постоянный
    Битрейт : 640 Кбит/сек
    Каналы : 6 каналов
    Channel layout : L R C LFE Ls Rs
    Частота : 48, 0 КГц
    Частота кадров : 31, 250 кадров/сек (1536 SPF)
    Битовая глубина : 16 бит
    Метод сжатия : С потерями
    Размер потока : 458 Мбайт (1%)
    Язык : English
    ServiceKind/String : Complete Main
    Default : Нет
    Forced : Нет
    Текст
    Идентификатор : 5
    Формат : UTF-8
    Идентификатор кодека : S_TEXT/UTF8
    Идентификатор кодека/Информация : UTF-8 Plain Text
    Продолжительность : 1 ч. 39 м.
    Битрейт : 65 бит/сек
    ElementCount : 1806
    Размер потока : 47, 2 Кбайт (0%)
    Заголовок : Full
    Язык : English
    Default : Нет
    Forced : Нет
    Меню
    00: 00: 00.000 : en: Chapter 01
    00: 05: 39.798 : en: Chapter 02
    00: 11: 21.097 : en: Chapter 03
    00: 15: 06.239 : en: Chapter 04
    00: 19: 01.140 : en: Chapter 05
    00: 20: 52.042 : en: Chapter 06
    00: 22: 43.821 : en: Chapter 07
    00: 26: 11.111 : en: Chapter 08
    00: 27: 47.082 : en: Chapter 09
    00: 32: 11.846 : en: Chapter 10
    00: 36: 17.425 : en: Chapter 11
    00: 40: 34.640 : en: Chapter 12
    00: 42: 56.699 : en: Chapter 13
    00: 44: 26.872 : en: Chapter 14
    00: 46: 39.380 : en: Chapter 15
    00: 48: 06.175 : en: Chapter 16
    00: 49: 18.664 : en: Chapter 17
    00: 52: 25.809 : en: Chapter 18
    00: 53: 58.568 : en: Chapter 19
    00: 54: 34.479 : en: Chapter 20
    00: 59: 06.960 : en: Chapter 21
    01: 01: 30.645 : en: Chapter 22
    01: 04: 40.752 : en: Chapter 23
    01: 07: 25.249 : en: Chapter 24
    01: 09: 31.042 : en: Chapter 25
    01: 10: 54.834 : en: Chapter 26
    01: 12: 05.154 : en: Chapter 27
    01: 15: 03.040 : en: Chapter 28
    01: 17: 29.770 : en: Chapter 29
    01: 18: 04.846 : en: Chapter 30
    01: 19: 21.840 : en: Chapter 31
    01: 19: 48.116 : en: Chapter 32
    01: 22: 24.940 : en: Chapter 33
    01: 29: 00.293 : en: Chapter 34

    Скриншоты для ознакомления



    Все одноименные релизы в Клубе
    Время раздачи: 24/7 (до появления первых 3-5 скачавших)

    Онлайн видео История игрушек 4



    История игрушек 4/Toy Story 4 (2019) UHD BDRemux [H.265/2160p] [4K, HDR, 10-bit] [MVO]
    Рейтинг →
     (голосов: 1, оценка 3/5, голосовать можно 1 раз )

    Другие торренты по теме:

  • История игрушек: Время забыть / Toy Story That Time Forgot (2014) HDTVRip [H.264 / 720p-LQ] [EN] скачать через торрент бесплатно
  • История игрушек: Время забыть / Toy Story That Time Forgot (2014) HDTVRip [H.264 / 720p-LQ]
  • История игрушек: Время забыть / Toy Story That Time Forgot (2014) HDTVRip
  • История игрушек. Оловянные солдатики (2013) HDTVRip
  • История игрушек: Самозванец / Toy Story Toons: Small Fry (2011) BDRip [H.264 / 1080p]
  • История игрушек: Самозванец / Toy Story Toons: Small Fry (2011) BDRip [H.264 / 720p]
  • История игрушек: Самозванец / Toy Story Toons: Small Fry (2011) BDRemux [H.264 / 1080p]
  • История игрушек: Веселозавр Рекс / Toy Story Toons: Partysaurus Rex (2012) WEB-DL [H.264 / 1080p]


    • Комментарии (0):

      Информация

      Информация

        Посетители, находящиеся в группе Гости, не могут оставлять комментарии в данной новости.

        ↓ Меню




        ↓ Опрос

        Вы добавили сайт в закладки?
        Да
        Нет


        Популярное

        Малышарики (2015-2019) WEB-DL [H.264 / 1080p-LQ] (серии 1-154 из 208) [Обновляемая]

        (скачиваний: 93)
        Футурама / Futurama (1999-2013) DVDRip (7 Сезонов, 140 серии) скачать через торрент бесплатно

        (скачиваний: 91)
        Жила-была царевна (2015-2019) WEB-DLRip [H.264 / 720p-LQ] (сезон 1, серии 1-18 из 26) [Обновляемая]

        (скачиваний: 53)
        Металионы / Metalions (2018-2019) WEB-DLRip [H.264 / 720p-LQ] (сезон 1, серии 1-52 из 52) [Обновляемая]

        (скачиваний: 45)
        Рик и Морти / Rick and Morty (2015) WEB-DL [H.264 / 1080p] (Сезон 2, серии 1-10 из 10) Сыендук [EN / RU Sub] скачать через торрент бесплатно

        (скачиваний: 44)
        В гостях у сказки (сборник 56 фильмов) (1939-2009) DVDRip

        (скачиваний: 38)
        Рик и Морти / Rick and Morty (2013) BDRip [H.264 / 1080p] (Сезон 1, серии 1-11 из 11) Сыендук [EN Sub] скачать через торрент бесплатно

        (скачиваний: 36)
        Три кота (2018) WEB-DLRip [H.264 / 720p-LQ] (сезон 3, серии 105-106 из 156)

        (скачиваний: 34)
        Рик и Морти / Rick and Morty (2013) BDRip [H.264 / 720p-LQ] (сезон 1, серии 1-11 из 11) Сыендук

        (скачиваний: 28)
        Королевская академия / Regal Academy (2016) SATRip [H.264] (Сезон 1, 26 серий из 26) [UKR]

        (скачиваний: 24)