.
Авторизация | Регистрация
bitok.xyz
Торрент скачать бесплатно Мультфильмы торрент скачать Shokugeki no Souma: Ni no Sara | Кулинарные поединки Сомы: Четвертое блюдо [TV-4][2019, TV, 1 из 25] WEBRip 720 rus торрент скачать бесплатно


    Shokugeki no Souma: Ni no Sara | Кулинарные поединки Сомы: Четвертое блюдо [TV-4][2019, TV, 1 из 25] WEBRip 720 rus торрент скачать бесплатно

    Дата: 13-10-2019, 05:00 | .torrent скачали: 0

    Shokugeki no Souma: Ni no Sara | Кулинарные поединки Сомы: Четвертое блюдо [TV-4][2019, TV, 1 из 25] WEBRip 720 rusТип: TV
    Жанр: Комедия, этти, школа, мультсериал
    Продолжительность: ~00: 24: 00 серия
    Количество серий: 25
    Дата выпуска: c 12 окт. 2019 г.
    Производство: Япония, J.C Staff
    Режиссер: Ёситомо Ёнэтани
    Ссылки: World-Art

    Описание

    С того времени, как Сома поступил в Тоцуки, прошло не мало времени и не мало событий. Просто у Сомы есть такая черта, везде совать свой нос, вот и тут так же, получается так, что он сует нос и становится центральной фигурой. Везде и всегда Сома должен быть первым, на любом событии, любом фестивале. Но все эти фестивали связаны с кулинарией. Но так же Сома много чего другого сделал для академии. В академию пришел отец Накири Эрины, он должен был оценить блюда. Азами, так зовут отца Эрины, пришел в академию и стал там новым директором, путем свержения старого. Только он тот ещё диктатор, теперь никакой свободы. Но он преследует благие цели, он хочет избавиться от тех заведений, в которых блюда низкого качества, то есть кулинарная революция. Только закусочная Сомы попала под расстрел. Сома хочет защитить свою честь и вызывает Азами на поединок. И исход будет ясен, только после просмотра аниме! Вот оно и настало время, когда мы увидим продолжение сего произведения, и наконец-то посмотрим, что-же будут делать наши герои, чтобы вернуть школу.
    Язык озвучки: Русский (SovetRomantica)
    Субтитры: русские (надписи)
    Качество видео: WEBRip
    Видео: AVC/H.264, 1280x720 (16: 9), 23.976 fps, ~4000 Kbps
    Аудио: FLAC, 48 KHz, 1012 kbps
    General
    Unique ID : 158744280061770907743714291483993423872 (0x776D09477DB1099145DA8630179FC000)
    Complete name : D: Akari GroupShokugeki.no.Souma.Shin.no.SaraShokugeki.no.Souma.Shin.no.Sara.TV4.720pShokugeki.no.Souma.Shin.no.Sara.S4E1.720p.SovetRomantica.mkv
    Format : Matroska
    Format version : Version 4/Version 2
    File size : 847 MiB
    Duration : 23mn 39s
    Overall bit rate mode : Variable
    Overall bit rate : 5 005 Kbps
    Encoded date : UTC 2019-10-12 14: 08: 25
    Writing application : mkvmerge v37.0.0 (\'Leave It\') 64-bit
    Writing library : libebml v1.3.9 + libmatroska v1.5.2
    Video
    ID : 1
    Format : AVC
    Format/Info : Advanced Video Codec
    Format profile : High@L4
    Format settings, CABAC : Yes
    Format settings, ReFrames : 6 frames
    Codec ID : V_MPEG4/ISO/AVC
    Duration : 23mn 39s
    Bit rate : 4 000 Kbps
    Width : 1 280 pixels
    Height : 720 pixels
    Display aspect ratio : 16: 9
    Frame rate mode : Constant
    Frame rate : 23.976 (24000/1001) fps
    Color space : YUV
    Chroma subsampling : 4: 2: 0
    Bit depth : 8 bits
    Scan type : Progressive
    Bits/(Pixel*Frame) : 0.181
    Stream size : 675 MiB (80%)
    Writing library : x264 core 142
    Encoding settings : cabac=1/ref=6/deblock=1: 1: 1/analyse=0x3: 0x113/me=umh/subme=8/psy=1/psy_rd=0.40: 0.00/mixed_ref=1/me_range=16/chroma_me=1/trellis=1/8x8dct=1/cqm=0/deadzone=21, 11/fast_pskip=1/chroma_qp_offset=-2/threads=10/lookahead_threads=1/sliced_threads=0/nr=0/decimate=1/interlaced=0/bluray_compat=0/constrained_intra=0/bframes=0/weightp=2/keyint=96/keyint_min=48/scenecut=40/intra_refresh=0/rc_lookahead=48/rc=2pass/mbtree=1/bitrate=4000/ratetol=1.0/qcomp=0.60/qpmin=0/qpmax=69/qpstep=4/cplxblur=20.0/qblur=0.5/vbv_maxrate=6000/vbv_bufsize=9000/nal_hrd=none/filler=0/ip_ratio=1.40/aq=1: 0.60
    Default : Yes
    Forced : No
    Audio
    ID : 2
    Format : FLAC
    Format/Info : Free Lossless Audio Codec
    Codec ID : A_FLAC
    Duration : 23mn 39s
    Bit rate mode : Variable
    Bit rate : 1 012 Kbps
    Channel(s) : 2 channels
    Channel positions : Front: L R
    Sampling rate : 48.0 KHz
    Frame rate : 41.667 fps (1152 spf)
    Bit depth : 16 bits
    Stream size : 171 MiB (20%)
    Writing library : libFLAC 1.2.1 (UTC 2007-09-17)
    Default : Yes
    Forced : No
    Text
    ID : 3
    Format : ASS
    Codec ID : S_TEXT/ASS
    Codec ID/Info : Advanced Sub Station Alpha
    Duration : 23mn 38s
    Bit rate : 16 bps
    Count of elements : 27
    Compression mode : Lossless
    Stream size : 2.80 KiB (0%)
    Default : Yes
    Forced : No

    Онлайн видео Shokugeki no Souma: Ni no Sara


    Shokugeki no Souma: Ni no Sara | Кулинарные поединки Сомы: Четвертое блюдо [TV-4][2019, TV, 1 из 25] WEBRip 720 rus торрент скачать бесплатно
    Рейтинг →
     (голосов: 1, оценка 3/5, голосовать можно 1 раз )

    Другие торренты по теме:

  • Shokugeki no Souma / Food Wars! Shokugeki no Soma / Кулинарные поединки Сомы [2015, TV, 24] HDTV 720p Raw + rus скачать через торрент бесплатно
  • Shokugeki no Souma: Ni no Sara / Shokugeki no Soma: The Second Plate / Кулинарные поединки Сомы: Второе блюдо [ТВ-2] [2016, TV, 1 из 13 ep] WEBRip 720p Raw
  • Shokugeki no Souma | Food Wars! Shokugeki no Soma | Кулинарные поединки Сомы [ТВ-1] [2015, TV, 24] BDrip 1080p Hi10p raw
  • Shokugeki no Souma / Кулинарные поединки Сомы [2015, TV, 1 из 13 ep] WEBRip 720p Raw скачать через торрент бесплатно
  • Shokugeki no Souma: Ni no Sara / Кулинарные Поединки Сомы: Второе Блюдо TV-2 [2016, TV, 2 из 13] HDTV 720p raw + rus
  • Shokugeki no Souma: San no Sara / Food Wars! The Third Plate / Кулинарная битва [ТВ-3] [2017, TV, 1 из 13] WEB-DL 720p Raw+Rus
  • Shokugeki no Souma: San no Sara | Food Wars! The Third Plate | Кулинарные поединки Сомы [ТВ-3] [2017, TV, 3 из 13] WEB-DL 720p 10bit raw
  • Shokugeki no Souma: San no Sara - Tootsuki Ressha Hen / Food Wars! The Third Plate: Totsuki Train Arc / Кулинарные поединки Сомы [ТВ-4] [2018, TV, 12 из 12 эп.] WEB-DL 1080p Raw


    • Комментарии (0):

      Информация

      Информация

        Посетители, находящиеся в группе Гости, не могут оставлять комментарии в данной новости.

        ↓ Меню




        ↓ Опрос

        Вы добавили сайт в закладки?
        Да
        Нет


        Популярное

        М.Ю. Демидова | ЕГЭ-2020. Физика. 30 типовых вариантов (2020) [PDF]

        (скачиваний: 119)
        Малышарики (2015-2019) WEB-DL [H.264 / 1080p-LQ] (серии 1-154 из 208) [Обновляемая]

        (скачиваний: 111)
        Футурама / Futurama (1999-2013) DVDRip (7 Сезонов, 140 серии) скачать через торрент бесплатно

        (скачиваний: 58)
        Рик и Морти / Rick and Morty (2015) WEB-DL [H.264 / 1080p] (Сезон 2, серии 1-10 из 10) Сыендук [EN / RU Sub] скачать через торрент бесплатно

        (скачиваний: 45)
        Жила-была царевна (2015-2019) WEB-DLRip [H.264 / 720p-LQ] (сезон 1, серии 1-18 из 26) [Обновляемая]

        (скачиваний: 34)
        Лунтик и его друзья (2013-2017) WEB-DLRip 7,8,9 сезон (390-488 серии)[Обновляемая]

        (скачиваний: 34)
        Металионы / Metalions (2018-2019) WEB-DLRip [H.264 / 720p-LQ] (сезон 1, серии 1-52 из 52) [Обновляемая]

        (скачиваний: 32)
        Роботы-пожарные / Fire Robo (2016) WEB-DLRip [H.264 / 720p-LQ] (сезон 1, серии 1-26 из 26) [Обновляемая]

        (скачиваний: 25)
        Рик и Морти / Rick and Morty (2013-2015) BDRip [H.264] (сезон 1-2, серии 1-21 из 21) Сыендук

        (скачиваний: 25)
        Снежная Королева: Хранители Чудес (2019) WEB-DLRip [H.264 / 720p-LQ] (сезон 1, серия 1-4 из 26) [Обновляемая]

        (скачиваний: 25)