.
Авторизация | Регистрация

bitok.xyz

» » Angry Birds 2 в кино / The Angry Birds Movie 2 (2019) WEBRip [H.264 / 1080p-LQ] [UKR, EN / KOR, EN Sub] [Line] торрент скачать бесплатно


    Angry Birds 2 в кино / The Angry Birds Movie 2 (2019) WEBRip [H.264 / 1080p-LQ] [UKR, EN / KOR, EN Sub] [Line] торрент скачать бесплатно

    Дата: 17-10-2019, 05:00 | .torrent скачали: 0

    Angry Birds 2 в кино / The Angry Birds Movie 2 (2019) WEBRip [H.264 / 1080p-LQ] [UKR, EN / KOR, EN Sub] [Line]Производство: США, Финляндия/Rovio Entertainment, Sony Pictures Animation
    Жанр: мультфильм, комедия, приключения, семейный
    Режиссер: Туроп Ван Орман, Джон Райс

    Актеры
    Джейсон Судейкис, Джош Гад, Лесли Джонс, Билл Хейдер, Рэйчел Блум, Аквафина, Стерлинг К. Браун, Эухенио Дербес, Тиффани Хэддиш, Дэнни Макбрайд

    Описание

    Птицы узнали о существовании голодных зелёных свиней, после чего началась священная война, которая длилась многие годы. Однако теперь на горизонте появился новый враг — Зета, обитательница третьего, замёрзшего острова. Она считает, что все должны почувствовать на себе силу холода, и начинает атаку на дальних родственников, обитающих в тёплых краях. Теперь птицы и свиньи должны объединиться, чтобы остановить заморозки

    Возраст: 6+
    Рейтинг MPAA: PG (Рекомендуется присутствие родителей)
    Дата мировой премьеры: 2 августа 2019
    Дата премьеры в России: 15 августа 2019

    Продолжительность: 01: 34: 35
    Качество видео: WEBRip
    Перевод : Отсутствует
    Язык озвучки : Украинский, английский (оригинал)
    Субтитры: Корейские (вшитые, неотключаемые), английские (полные)
    Видео: AVC/H.264, 1920x1080, 4700 kbps
    Аудио 1 : AC3, 2 ch, 192 Kbps | Украинский дубляж (Line)
    Аудио 2 : AC3, 2 ch, 192 Kbps | Английский (оригинал)Общее
    Уникальный идентификатор : 170563435099642998050036584616983616402 (0x8051529CF70746AA8B03BA20BAD55B92)
    Полное имя : The.Angry.Birds.Movie.2.(2019).WEBRip.1080p.mkv
    Формат : Matroska
    Версия формата : Version 4
    Размер файла : 3, 20 Гбайт
    Продолжительность : 1 ч. 34 м.
    Общий поток : 4851 Кбит/сек
    Дата кодирования : UTC 2019-10-14 12: 49: 14
    Программа кодирования : mkvmerge v8.3.0 (\'Over the Horizon\') 64bit
    Библиотека кодирования : libebml v1.3.1 + libmatroska v1.4.2
    Видео
    Идентификатор : 1
    Формат : AVC
    Формат/Информация : Advanced Video Codec
    Профиль формата : High@L4.1
    Настройки формата : CABAC/4 Ref Frames
    Параметр CABAC формата : Да
    Параметр RefFrames формата : 4 кадра
    Идентификатор кодека : V_MPEG4/ISO/AVC
    Продолжительность : 1 ч. 31 м.
    Битрейт : 4700 Кбит/сек
    Ширина : 1920 пикселей
    Высота : 1080 пикселей
    Соотношение сторон : 16: 9
    Режим частоты кадров : Постоянный
    Частота кадров : 30, 000 кадров/сек
    Цветовое пространство : YUV
    Субдискретизация насыщенности : 4: 2: 0
    Битовая глубина : 8 бит
    Тип развёртки : Прогрессивная
    Бит/(Пиксели*Кадры) : 0.076
    Размер потока : 2, 96 Гбайт (92%)
    Библиотека кодирования : x264 core 148 r2748 97eaef2
    Настройки программы : cabac=1/ref=4/deblock=1: 0: 0/analyse=0x3: 0x113/me=umh/subme=9/psy=1/psy_rd=1.00: 0.00/mixed_ref=1/me_range=16/chroma_me=1/trellis=2/8x8dct=1/cqm=0/deadzone=21, 11/fast_pskip=1/chroma_qp_offset=-2/threads=72/lookahead_threads=6/sliced_threads=0/nr=0/decimate=1/interlaced=0/bluray_compat=0/constrained_intra=0/bframes=3/b_pyramid=2/b_adapt=2/b_bias=0/direct=3/weightb=1/open_gop=0/weightp=2/keyint=250/keyint_min=25/scenecut=40/intra_refresh=0/rc_lookahead=50/rc=abr/mbtree=1/bitrate=4700/ratetol=1.0/qcomp=0.60/qpmin=0/qpmax=69/qpstep=4/ip_ratio=1.40/aq=1: 1.00
    Default : Да
    Forced : Нет
    Аудио #1
    Идентификатор : 2
    Формат : AC-3
    Формат/Информация : Audio Coding 3
    Коммерческое название : Dolby Digital
    Идентификатор кодека : A_AC3
    Продолжительность : 1 ч. 31 м.
    Вид битрейта : Постоянный
    Битрейт : 192 Кбит/сек
    Каналы : 2 канала
    Channel layout : L R
    Частота : 48, 0 КГц
    Частота кадров : 31, 250 кадров/сек (1536 SPF)
    Битовая глубина : 16 бит
    Метод сжатия : С потерями
    Размер потока : 126 Мбайт (4%)
    Заголовок : DUB (Line)
    Язык : Ukrainian
    ServiceKind/String : Complete Main
    Default : Да
    Forced : Нет
    Аудио #2
    Идентификатор : 3
    Формат : AC-3
    Формат/Информация : Audio Coding 3
    Коммерческое название : Dolby Digital
    Идентификатор кодека : A_AC3
    Продолжительность : 1 ч. 31 м.
    Вид битрейта : Постоянный
    Битрейт : 192 Кбит/сек
    Каналы : 2 канала
    Channel layout : L R
    Частота : 48, 0 КГц
    Частота кадров : 31, 250 кадров/сек (1536 SPF)
    Битовая глубина : 16 бит
    Метод сжатия : С потерями
    Размер потока : 126 Мбайт (4%)
    Язык : English
    ServiceKind/String : Complete Main
    Default : Нет
    Forced : Нет
    Текст #1
    Идентификатор : 4
    Формат : UTF-8
    Идентификатор кодека : S_TEXT/UTF8
    Идентификатор кодека/Информация : UTF-8 Plain Text
    Продолжительность : 1 ч. 33 м.
    Битрейт : 73 бит/сек
    ElementCount : 1792
    Размер потока : 50, 3 Кбайт (0%)
    Заголовок : Full
    Язык : English
    Default : Нет
    Forced : Нет
    Текст #2
    Идентификатор : 5
    Формат : UTF-8
    Идентификатор кодека : S_TEXT/UTF8
    Идентификатор кодека/Информация : UTF-8 Plain Text
    Продолжительность : 1 ч. 33 м.
    Битрейт : 147 бит/сек
    ElementCount : 1792
    Размер потока : 101 Кбайт (0%)
    Заголовок : Full (colored)
    Язык : English
    Default : Нет
    Forced : Нет
    Скриншоты для ознакомления



    Все одноименные релизы в Клубе Время раздачи: 24/7 (до появления первых 3-5 скачавших)

    Онлайн видео Angry Birds 2 в кино



    Angry Birds 2 в кино/The Angry Birds Movie 2 (2019) WEBRip [H.264/1080p-LQ] [UKR, EN/KOR, EN Sub] [Line]
    Рейтинг →
     (голосов: 1, оценка 4/5, голосовать можно 1 раз )

    Другие торренты по теме:

  • Angry Birds: Anthology / Angry Birds: Антология (2011-2013) [En] (4.0 / 2.1 / 4.0.1 / 1.6 / 1.5 / 1.2.1) RePack KloneB@DGuY скачать через торрент бесплатно
  • Angry Birds в кино / Angry Birds (2016) WEBRip [H.264 / 1080p] [Трейлер] скачать через торрент бесплатно
  • Angry Birds в кино / Angry Birds (2016) CAMRip
  • Angry Birds в кино / Angry Birds (2016) TC [Звук с CAMRip]
  • Angry Birds в кино / Angry Birds (2016) WEBRip
  • Angry Birds в кино / Angry Birds (2016) WEBRip [H.264 / 720p-LQ]
  • Angry Birds в кино / Angry Birds (2016) TC [Line]
  • Angry Birds в кино / Angry Birds (2016) TC [H.264 / 720p]


    • Комментарии (0):

      Информация

      Информация

        Посетители, находящиеся в группе Гости, не могут оставлять комментарии в данной новости.

        ↓ Меню




        ↓ Опрос

        Вы добавили сайт в закладки?
        Да
        Нет


        Популярное

        Малышарики (2015-2019) WEB-DL [H.264 / 1080p-LQ] (серии 1-154 из 208) [Обновляемая]

        (скачиваний: 199)
        Три кота (2018) WEB-DLRip [H.264 / 720p-LQ] (сезон 3, серии 105-106 из 156)

        (скачиваний: 145)
        Футурама / Futurama (1999-2013) DVDRip (7 Сезонов, 140 серии) скачать через торрент бесплатно

        (скачиваний: 136)
        Свинка Пеппа / Peppa Pig (2004-2012) SATRip (1-4 сезоны: 208 серий из 209) скачать через торрент бесплатно

        (скачиваний: 93)
        Жила-была царевна (2015-2019) WEB-DLRip [H.264 / 720p-LQ] (сезон 1, серии 1-18 из 26) [Обновляемая]

        (скачиваний: 83)
        Роберт Кийосаки | Богатый папа, бедный папа для подростков (2014) [PDF, FB2]

        (скачиваний: 58)
        Лунтик и его друзья (2013-2017) WEB-DLRip 7,8,9 сезон (390-488 серии)[Обновляемая]

        (скачиваний: 55)
        Оранжевая корова (2018-2019) WEB-DLRip [H.264 / 720p-LQ] (сезон 1, серии 1-3 из 20)

        (скачиваний: 50)
        Гого: приключение с английским / GOGOs Adventures with English (1995) WEBRip (Сезон 1, серий 39 из 39) [EN] скачать через торрент бесплатно

        (скачиваний: 46)
        Джоан Кэтлин Роулинг | Гарри Поттер. Полное собрание [7 книг] (2005-2007) [PDF, DJVU, FB2, EPUB]

        (скачиваний: 40)