.
Авторизация | Регистрация

bitok.xyz

» » Король Лев / The Lion King (2019) BDRip [H.264 / 720p-LQ] торрент скачать бесплатно


    Король Лев / The Lion King (2019) BDRip [H.264 / 720p-LQ] торрент скачать бесплатно

    Дата: 17-10-2019, 05:00 | .torrent скачали: 0

    Король Лев / The Lion King (2019) BDRip [H.264 / 720p-LQ]Производство: США/Walt Disney Pictures, Fairview Entertainment
    Жанр: Мультфильм, мюзикл, драма, приключения, семейный
    Режиссер: Джон Фавро

    Актеры
    Джеймс Эрл Джонс, Дональд Гловер, Чиветел Эджиофор, Джон Оливер, Джон Кани, Элфри Вудард, Джейдон Маккрэри, Шахади Райт Джозеф, Пенни Джонсон, Кигэн-Майкл Ки

    Описание

    История об отважном львенке по имени Симба. Знакомые с детства герои взрослеют, влюбляются, познают себя и окружающий мир, совершают ошибки и делают правильный выбор.

    Возраст: 6+ (зрителям, достигшим 6 лет)
    Рейтинг MPAA: PG (рекомендуется присутствие родителей)
    Дата мировой премьеры: 9 июля 2019
    Дата российской премьеры: 18 июля 2019, WDSSPR
    Релиз от: NNMClub
    Продолжительность: 01: 59: 34
    Качество видео: BDRip (batonchik )
    Перевод: Дублированный (iTunes)
    Субтитры: Русские (Full, SDH), английские (Full)
    Видео: AVC/H.264, 1280х720, ~ 3700 Kbps, 23.976 fps
    Аудио: AC3, 6 ch, 384 Kbps | Русский--Information 16.10.2019 3: 35: 40 Standard error stream
    ---Information 16.10.2019 3: 35: 49 y4m info: 1280x720p 1: 1 @ 24000/1001 fps (cfr)
    ---Information 16.10.2019 3: 35: 49 x264 info: using SAR=1/1
    ---Information 16.10.2019 3: 35: 49 x264 info: using cpu capabilities: MMX2 SSE2Fast SSSE3 SSE4.2 AVX
    ---Information 16.10.2019 3: 35: 49 x264 info: profile High, level 4.1, 4: 2: 0, 8-bit
    ---Information 16.10.2019 7: 40: 15 x264 info: frame I: 1267 Avg QP: 16.75 size: 151798
    ---Information 16.10.2019 7: 40: 15 x264 info: frame P: 45986 Avg QP: 19.42 size: 44655
    ---Information 16.10.2019 7: 40: 15 x264 info: frame B: 122865 Avg QP: 22.35 size: 8421

    ---Information 16.10.2019 7: 40: 15 x264 info: consecutive B-frames: 5.1% 5.5% 15.1% 27.9% 13.4% 27.4% 2.5% 1.1% 0.8% 1.3%
    General
    Unique ID : 215834668474755185168311608803191183489 (0xA2603EBF3797A53E3D07564C55585881)
    Complete name : G: BDRip-LQКороль Лев_The Lion King (2019) BDRip.H.264.720p.NNMClub.mkv
    Format : Matroska
    Format version : Version 4
    File size : 3.37 GiB
    Duration : 1 h 58 min
    Overall bit rate : 4 085 kb/s
    Movie name : Король Лев_The Lion King (2019) BDRip.H.264.720p.NNMClub
    Encoded date : UTC 2019-10-16 04: 47: 11
    Writing application : mkvmerge v36.0.0 (\'Is That Jazz?\') 64-bit
    Writing library : libebml v1.3.9 + libmatroska v1.5.2
    Video
    ID : 1
    Format : AVC
    Format/Info : Advanced Video Codec
    Format profile : High@L4.1
    Format settings : CABAC/9 Ref Frames
    Format settings, CABAC : Yes
    Format settings, Reference frames : 9 frames
    Codec ID : V_MPEG4/ISO/AVC
    Duration : 1 h 58 min
    Bit rate : 3 700 kb/s
    Width : 1 280 pixels
    Height : 720 pixels
    Display aspect ratio : 16: 9
    Frame rate mode : Constant
    Frame rate : 23.976 (24000/1001) FPS
    Color space : YUV
    Chroma subsampling : 4: 2: 0
    Bit depth : 8 bits
    Scan type : Progressive
    Bits/(Pixel*Frame) : 0.167
    Stream size : 3.06 GiB (91%)
    Title : Король Лев_The Lion King (2019) BDRip.H.264.720p.NNMClub
    Writing library : x264 core 158 r2984 3759fcb
    Encoding settings : cabac=1/ref=9/deblock=1: -3: -3/analyse=0x3: 0x133/me=umh/subme=10/psy=1/psy_rd=1.00: 0.25/mixed_ref=1/me_range=32/chroma_me=1/trellis=2/8x8dct=1/cqm=0/deadzone=6, 6/fast_pskip=0/chroma_qp_offset=-4/threads=12/lookahead_threads=2/sliced_threads=0/nr=0/decimate=0/interlaced=0/bluray_compat=0/constrained_intra=0/bframes=9/b_pyramid=2/b_adapt=2/b_bias=0/direct=1/weightb=1/open_gop=0/weightp=2/keyint=240/keyint_min=23/scenecut=40/intra_refresh=0/rc_lookahead=40/rc=2pass/mbtree=1/bitrate=3700/ratetol=1.0/qcomp=0.60/qpmin=0/qpmax=69/qpstep=4/cplxblur=20.0/qblur=0.5/vbv_maxrate=50000/vbv_bufsize=62500/nal_hrd=none/filler=0/ip_ratio=1.10/aq=3: 0.80
    Language : English
    Default : Yes
    Forced : No
    Audio
    ID : 2
    Format : AC-3
    Format/Info : Audio Coding 3
    Commercial name : Dolby Digital
    Codec ID : A_AC3
    Duration : 1 h 58 min
    Bit rate mode : Constant
    Bit rate : 384 kb/s
    Channel(s) : 6 channels
    Channel layout : L R C LFE Ls Rs
    Sampling rate : 48.0 kHz
    Frame rate : 31.250 FPS (1536 SPF)
    Compression mode : Lossy
    Stream size : 325 MiB (9%)
    Title : Дублированный (iTunes)
    Language : Russian
    Service kind : Complete Main
    Default : Yes
    Forced : No
    Text #1
    ID : 3
    Format : UTF-8
    Codec ID : S_TEXT/UTF8
    Codec ID/Info : UTF-8 Plain Text
    Duration : 1 h 55 min
    Bit rate : 68 b/s
    Count of elements : 1371
    Stream size : 58.1 KiB (0%)
    Title : Full
    Language : Russian
    Default : No
    Forced : No
    Text #2
    ID : 4
    Format : UTF-8
    Codec ID : S_TEXT/UTF8
    Codec ID/Info : UTF-8 Plain Text
    Duration : 1 h 47 min
    Bit rate : 89 b/s
    Count of elements : 1642
    Stream size : 70.4 KiB (0%)
    Title : SDH
    Language : Russian
    Default : No
    Forced : No
    Menu
    00: 00: 00.000 : en: Circle Of Life/Nants\' Ingonyama
    00: 04: 50.499 : en: Life\'s Not Fair
    00: 10: 51.067 : en: Everything The Light Touches
    00: 17: 47.692 : en: I Just Can\'t Wait To Be King
    00: 23: 53.015 : en: Elephant Graveyard
    00: 30: 00.132 : en: Under The Stars
    00: 33: 05.066 : en: Be Prepared
    00: 37: 09.310 : en: Stampede
    00: 43: 42.912 : en: Scar Takes Over
    00: 50: 47.336 : en: Timon And Pumbaa
    00: 55: 02.716 : en: Hakuna Matata
    00: 59: 48.460 : en: Scar\'s Kingdom
    01: 06: 27.233 : en: Line Of Indifference
    01: 14: 32.093 : en: The Lion Sleeps Tonight
    01: 18: 26.410 : en: Can You Feel The Love Tonight
    01: 23: 07.900 : en: He Lives In You
    01: 28: 04.654 : en: Spirit
    01: 33: 10.877 : en: Simba Confronts Scar
    01: 37: 13.745 : en: Battle For Pride Rock
    01: 44: 39.190 : en: The Rightful King
    01: 47: 47.336 : en: End Credits/Never Too Late

    Скриншоты для ознакомления



    Все одноименные релизы в Клубе
    Время раздачи: 24/7 (до появления первых 3-5 скачавших)

    Онлайн видео Король Лев



    Король Лев/The Lion King (2019) BDRip [H.264/720p-LQ]
    Рейтинг →
     (голосов: 1, оценка 4/5, голосовать можно 1 раз )

    Другие торренты по теме:

  • Король Лев / The Lion King (1994) BDRip [1080p] 3D [Вертикальная анаморфная стереопара]
  • Король Лев / The Lion King (1994) BDRip [H.265 / 1080p]
  • Лев Лео, король джунглей / Leo the Lion: King of the Jungle (1994) DVDRip
  • Король Лев / The Lion King (1994) BDRip [H.264 / 1080p-LQ]
  • Король Лев / The Lion King (1994-2004) Blu-Ray [1080p] [Трилогия]
  • Король Лев / The Lion King (1994) UHD BDRemux [H.265 / 2160p] [4K, HDR, 10-bit]
  • Король Лев / The Lion King (1994) BDRip [H.264] [MP4|1280x720] [VO]
  • Король Лев / The Lion King (1994-2004) BDRemux [H.264 / 1080p] (Трилогия)


    • Комментарии (0):

      Информация

      Информация

        Посетители, находящиеся в группе Гости, не могут оставлять комментарии в данной новости.

        ↓ Меню




        ↓ Опрос

        Вы добавили сайт в закладки?
        Да
        Нет


        Популярное

        Футурама / Futurama (1999-2013) DVDRip (7 Сезонов, 140 серии) скачать через торрент бесплатно

        (скачиваний: 132)
        Малышарики (2015-2019) WEB-DL [H.264 / 1080p-LQ] (серии 1-154 из 208) [Обновляемая]

        (скачиваний: 130)
        Три кота (2018) WEB-DLRip [H.264 / 720p-LQ] (сезон 3, серии 105-106 из 156)

        (скачиваний: 117)
        Свинка Пеппа / Peppa Pig (2004-2012) SATRip (1-4 сезоны: 208 серий из 209) скачать через торрент бесплатно

        (скачиваний: 79)
        Жила-была царевна (2015-2019) WEB-DLRip [H.264 / 720p-LQ] (сезон 1, серии 1-18 из 26) [Обновляемая]

        (скачиваний: 64)
        Роберт Кийосаки | Богатый папа, бедный папа для подростков (2014) [PDF, FB2]

        (скачиваний: 53)
        Гого: приключение с английским / GOGOs Adventures with English (1995) WEBRip (Сезон 1, серий 39 из 39) [EN] скачать через торрент бесплатно

        (скачиваний: 40)
        Лунтик и его друзья (2013-2017) WEB-DLRip 7,8,9 сезон (390-488 серии)[Обновляемая]

        (скачиваний: 40)
        Оранжевая корова (2018-2019) WEB-DLRip [H.264 / 720p-LQ] (сезон 1, серии 1-3 из 20)

        (скачиваний: 37)
        Джоан Кэтлин Роулинг | Гарри Поттер. Полное собрание [7 книг] (2005-2007) [PDF, DJVU, FB2, EPUB]

        (скачиваний: 34)