.
Авторизация | Регистрация
bitok.xyz
» » Братья Медведи: Тайна трёх миров / Boonie Bears: Entangled Worlds (2017) WEB-DLRip торрент скачать бесплатно


    Братья Медведи: Тайна трёх миров / Boonie Bears: Entangled Worlds (2017) WEB-DLRip торрент скачать бесплатно

    Дата: 29-10-2019, 05:00 | .torrent скачали: 2

    Братья Медведи: Тайна трёх миров / Boonie Bears: Entangled Worlds (2017) WEB-DLRipПроизводство: Китай/Fantawild Animation, Le Vision Pictures, Poly Film Investment, Shenzhen Huaqiang Shuzi Dongman, Tianjin Youyang Dongman Culture Media
    Жанр: Мультфильм, комедия, приключения, фантастика
    Режиссер: Линь Хуэйда, Дин Лян, Линь Юнчан

    Актеры
    Лорен Шан, Бао Чуньлай, Сунь Цяньхун, Джозеф Цзэн, Чжан Бинцзюнь ...

    Описание

    Веселые и озорные братья медведи Брайр и Брамбл, как и все лесные жители, любят свой дом — лес, в котором они живут, и не позволяют своему давнему другу, лесорубу Вику, его уничтожить.
    Не в первый раз удирая от медведей, Вик сталкивается с роботом-археологом Коко, пытающейся отыскать древний затерянный мир Фантастика и сбежать от бандитов, охотящихся за сокровищами волшебного мира. Братья и Вик решают объединиться и встать на защиту сокровищ, ведь настоящая дружба способна на все.

    Возраст: 6+ (зрителям, достигшим 6 лет)
    Рейтинг MPAA: G (нет возрастных ограничений)
    Продолжительность: 01: 23: 30
    Качество видео: WEB-DLRip
    Перевод: Дублированный (iTunes)
    Субтитры: Отсутствуют
    Видео: XviD, 720x304, ~1950 Kbps
    Аудио: AC-3, 6 ch, 384 Kbps
    Общее
    Полное имя : D: NNMБратья МедведиBoonie.Bears.Entangled.Worlds.2019.WEB-DLRip.avi
    Формат : AVI
    Формат/Информация : Audio Video Interleave
    Размер файла : 1, 37 Гбайт
    Продолжительность : 1 ч. 23 м.
    Общий поток : 2343 Кбит/сек
    Название фильма : T
    Программа кодирования : VirtualDubMod 1.5.10.3 (build 2550/release)
    Библиотека кодирования : VirtualDubMod build 2550/release
    Формат оригинала/Имя : K
    Видео
    Идентификатор : 0
    Формат : MPEG-4 Visual
    Профиль формата : Advanced Simple@L5
    Настройки формата : BVOP2
    Параметр BVOP формата : 2
    Параметр QPel формата : Нет
    Параметр GMC формата : Без точки перехода
    Параметр матрицы формата : Default (MPEG)
    Идентификатор кодека : XVID
    Идентификатор кодека/Подсказка : XviD
    Продолжительность : 1 ч. 23 м.
    Битрейт : 1950 Кбит/сек
    Ширина : 720 пикселей
    Высота : 304 пикселя
    Соотношение сторон : 2, 35: 1
    Частота кадров : 24, 000 кадра/сек
    Цветовое пространство : YUV
    Субдискретизация насыщенности : 4: 2: 0
    Битовая глубина : 8 бит
    Тип развёртки : Прогрессивная
    Метод сжатия : С потерями
    Бит/(Пиксели*Кадры) : 0.371
    Размер потока : 1, 14 Гбайт (83%)
    Библиотека кодирования : XviD 1.2.1 (UTC 2008-12-04)
    Аудио
    Идентификатор : 1
    Формат : AC-3
    Формат/Информация : Audio Coding 3
    Коммерческое название : Dolby Digital
    Идентификатор кодека : 2000
    Продолжительность : 1 ч. 23 м.
    Вид битрейта : Постоянный
    Битрейт : 384 Кбит/сек
    Каналы : 6 каналов
    ChannelLayout : L R C LFE Ls Rs
    Частота : 48, 0 КГц
    Частота кадров : 31, 250 кадров/сек (1536 SPF)
    Битовая глубина : 16 бит
    Метод сжатия : С потерями
    Размер потока : 229 Мбайт (16%)
    Выравнивание : Разделение по промежуткам
    Продолжительность промежутка : 42 мс. (1, 00 видеокадр)
    Время предзагрузки промежутка : 500 мс.
    ServiceKind/String : Complete Main

    Скриншоты для ознакомления



    Все одноименные релизы в Клубе Время раздачи: 24/7 (до появления первых 3-5 скачавших)

    Онлайн видео Братья Медведи: Тайна трёх миров



    Братья Медведи: Тайна трёх миров/Boonie Bears: Entangled Worlds (2017) WEB-DLRip
    Рейтинг →
     (голосов: 1, оценка 5/5, голосовать можно 1 раз )

    Другие торренты по теме:

  • Братья Медведи: Тайна трёх миров / Boonie Bears: Entangled Worlds (2017) WEB-DL [H.264 / 1080p-LQ]


    • Комментарии (0):

      Информация

      Информация

        Посетители, находящиеся в группе Гости, не могут оставлять комментарии в данной новости.

        ↓ Меню




        ↓ Опрос

        Вы добавили сайт в закладки?
        Да
        Нет


        Популярное