.
Авторизация | Регистрация
bitok.xyz
» » Братья Медведи: Тайна трёх миров / Boonie Bears: Entangled Worlds (2017) WEB-DL [H.264 / 1080p-LQ] торрент скачать бесплатно


    Братья Медведи: Тайна трёх миров / Boonie Bears: Entangled Worlds (2017) WEB-DL [H.264 / 1080p-LQ] торрент скачать бесплатно

    Дата: 29-10-2019, 05:00 | .torrent скачали: 3

    Братья Медведи: Тайна трёх миров / Boonie Bears: Entangled Worlds (2017) WEB-DL [H.264 / 1080p-LQ]Производство: Китай/Fantawild Animation, Le Vision Pictures, Poly Film Investment, Shenzhen Huaqiang Shuzi Dongman, Tianjin Youyang Dongman Culture Media
    Жанр: Мультфильм, комедия, приключения, фантастика
    Режиссер: Линь Хуэйда, Дин Лян, Линь Юнчан

    Актеры
    Лорен Шан, Бао Чуньлай, Сунь Цяньхун, Джозеф Цзэн, Чжан Бинцзюнь ...

    Описание

    Веселые и озорные братья медведи Брайр и Брамбл, как и все лесные жители, любят свой дом — лес, в котором они живут, и не позволяют своему давнему другу, лесорубу Вику, его уничтожить.
    Не в первый раз удирая от медведей, Вик сталкивается с роботом-археологом Коко, пытающейся отыскать древний затерянный мир Фантастика и сбежать от бандитов, охотящихся за сокровищами волшебного мира. Братья и Вик решают объединиться и встать на защиту сокровищ, ведь настоящая дружба способна на все.

    Возраст: 6+ (зрителям, достигшим 6 лет)
    Рейтинг MPAA: G (нет возрастных ограничений)
    Продолжительность: 01: 23: 30
    Качество видео: WEB-DL
    Перевод: Дублированный (iTunes)
    Субтитры: Отсутствуют
    Видео: AVC/H.264, 1920x806, ~4551 Kbps
    Аудио: AC3, 6 ch, 384 Kbps
    Общее
    Уникальный идентификатор : 317970507937534371274892330172386323966 (0xEF36E46B9A5F0799688B83D6EC5B2DFE)
    Полное имя : D: NNMБратья МедведиBoonie.Bears.Entangled.Worlds.2019.WEB-DL.1080p-LQ.mkv
    Формат : Matroska
    Версия формата : Version 4
    Размер файла : 2, 86 Гбайт
    Продолжительность : 1 ч. 23 м.
    Общий поток : 4908 Кбит/сек
    Программа кодирования : mkvmerge v38.0.0 (\'The Silent Type\') 64-bit
    Библиотека кодирования : libebml v1.3.9 + libmatroska v1.5.2
    Видео
    Идентификатор : 1
    Формат : AVC
    Формат/Информация : Advanced Video Codec
    Профиль формата : High@L4
    Настройки формата : CABAC/5 Ref Frames
    Параметр CABAC формата : Да
    Параметр RefFrames формата : 5 кадров
    Идентификатор кодека : V_MPEG4/ISO/AVC
    Продолжительность : 1 ч. 23 м.
    Битрейт : 4521 Кбит/сек
    Ширина : 1920 пикселей
    Высота : 806 пикселей
    Соотношение сторон : 2, 40: 1
    Режим частоты кадров : Постоянный
    Частота кадров : 24, 000 кадра/сек
    Цветовое пространство : YUV
    Субдискретизация насыщенности : 4: 2: 0
    Битовая глубина : 8 бит
    Тип развёртки : Прогрессивная
    Бит/(Пиксели*Кадры) : 0.122
    Размер потока : 2, 64 Гбайт (92%)
    Язык : English
    Default : Да
    Forced : Нет
    Цветовой диапазон : Limited
    Основные цвета : BT.709
    Характеристики трансфера : BT.709
    Коэффициенты матрицы : BT.709
    Аудио
    Идентификатор : 2
    Формат : AC-3
    Формат/Информация : Audio Coding 3
    Коммерческое название : Dolby Digital
    Идентификатор кодека : A_AC3
    Продолжительность : 1 ч. 23 м.
    Вид битрейта : Постоянный
    Битрейт : 384 Кбит/сек
    Каналы : 6 каналов
    ChannelLayout : L R C LFE Ls Rs
    Частота : 48, 0 КГц
    Частота кадров : 31, 250 кадров/сек (1536 SPF)
    Битовая глубина : 16 бит
    Метод сжатия : С потерями
    Размер потока : 229 Мбайт (8%)
    Заголовок : DUB DD 5.1 @ 384 kbps (iTunes)
    Язык : Russian
    ServiceKind/String : Complete Main
    Default : Да
    Forced : Нет
    Меню
    00: 00: 00.000 : en: Глава 1
    00: 08: 04.291 : en: Глава 2
    00: 16: 11.624 : en: Глава 3
    00: 24: 14.874 : en: Глава 4
    00: 32: 19.874 : en: Глава 5
    00: 40: 19.957 : en: Глава 6
    00: 48: 28.248 : en: Глава 7
    00: 56: 35.456 : en: Глава 8
    01: 04: 47.914 : en: Глава 9
    01: 12: 53.872 : en: Глава 10

    Скриншоты для ознакомления



    Все одноименные релизы в Клубе Время раздачи: 24/7 (до появления первых 3-5 скачавших)

    Онлайн видео Братья Медведи: Тайна трёх миров



    Братья Медведи: Тайна трёх миров/Boonie Bears: Entangled Worlds (2017) WEB-DL [H.264/1080p-LQ]
    Рейтинг →
     (голосов: 1, оценка 3/5, голосовать можно 1 раз )

    Другие торренты по теме:

  • Братья Медведи: Тайна трёх миров / Boonie Bears: Entangled Worlds (2017) WEB-DLRip


    • Комментарии (0):

      Информация

      Информация

        Посетители, находящиеся в группе Гости, не могут оставлять комментарии в данной новости.

        ↓ Меню




        ↓ Опрос

        Вы добавили сайт в закладки?
        Да
        Нет


        Популярное