.
Авторизация | Регистрация
bitok.xyz
» » Как приручить дракона / How to Train Your Dragon (2010) UHD BDRemux [H.265 / 2160p] [4K, HDR, 10-bit] торрент скачать бесплатно


    Как приручить дракона / How to Train Your Dragon (2010) UHD BDRemux [H.265 / 2160p] [4K, HDR, 10-bit] торрент скачать бесплатно

    Дата: 29-10-2019, 05:00 | .torrent скачали: 0

    Как приручить дракона / How to Train Your Dragon (2010) UHD BDRemux [H.265 / 2160p] [4K, HDR, 10-bit]Производство: США/DreamWorks Animation
    Жанр: мультфильм, фэнтези, комедия, приключения, семейный
    Режиссер: Дин ДеБлуа, Крис Сандерс

    Описание

    Вы узнаете историю подростка Иккинга, которому не слишком близки традиции его героического племени, много лет ведущего войну с драконами. Мир Иккинга переворачивается с ног на голову, когда он неожиданно встречает дракона Беззубика, который поможет ему и другим викингам увидеть привычный мир с совершенно другой стороны…

    Возраст: 6+ (зрителям, достигшим 6 лет)
    Рейтинг MPAA: PG (рекомендуется присутствие родителей)
    Продолжительность: 01: 37: 51
    Качество видео: UHD BDRemux
    Перевод: Дублированный
    Субтитры: русские, английские
    Видео: HEVC/H.265, 3840x2160, ~44.9 mbps
    Аудио: AC3, 6 ch, 640 kbps, Русский (DUB)
    Аудио: DTS-HD MA, 8 ch, 5554 kbps, Английский
    Общее
    Уникальный идентификатор : 238192017962971873060707966991107213049 (0xB3321D2E81CCD85CAD3AC1395FB5C6F9)
    Полное имя : D: MULTHow.to.Train.Your.Dragon.2010.BluRay.REMUX.HEVC.HDR.mkv
    Формат : Matroska
    Версия формата : Version 4
    Размер файла : 35, 1 Гбайт
    Продолжительность : 1 ч. 38 м.
    Режим общего битрейта : Переменный
    Общий поток : 51, 1 Мбит/сек
    Дата кодирования : UTC 2019-10-28 03: 26: 45
    Программа кодирования : mkvmerge v8.2.0 (\'World of Adventure\') 64bit
    Библиотека кодирования : libebml v1.3.1 + libmatroska v1.4.2
    Attachments : poster.jpg
    Видео
    Идентификатор : 1
    Формат : HEVC
    Формат/Информация : High Efficiency Video Coding
    Профиль формата : Main10@L5.1@High
    HDR_Format/String : SMPTE ST 2086, HDR10 compatible
    Идентификатор кодека : V_MPEGH/ISO/HEVC
    Продолжительность : 1 ч. 38 м.
    Битрейт : 44, 9 Мбит/сек
    Ширина : 3840 пикселей
    Высота : 2160 пикселей
    Соотношение сторон : 16: 9
    Режим частоты кадров : Постоянный
    Частота кадров : 23, 976 (24000/1001) кадра/сек
    Цветовое пространство : YUV
    Субдискретизация насыщенности : 4: 2: 0 (Type 2)
    Битовая глубина : 10 бит
    Бит/(Пиксели*Кадры) : 0.226
    Размер потока : 30, 8 Гбайт (88%)
    Default : Да
    Forced : Нет
    Цветовой диапазон : Limited
    Основные цвета : BT.2020
    Характеристики трансфера : PQ
    Коэффициенты матрицы : BT.2020 non-constant
    MasteringDisplay_ColorPrimaries : Display P3
    MasteringDisplay_Luminance : min: 0.0050 cd/m2, max: 1000 cd/m2
    MaxCLL : 998 cd/m2
    MaxFALL : 274 cd/m2
    Аудио #1
    Идентификатор : 2
    Формат : AC-3
    Формат/Информация : Audio Coding 3
    Коммерческое название : Dolby Digital
    Идентификатор кодека : A_AC3
    Продолжительность : 1 ч. 38 м.
    Вид битрейта : Постоянный
    Битрейт : 640 Кбит/сек
    Каналы : 6 каналов
    ChannelLayout : L R C LFE Ls Rs
    Частота : 48, 0 КГц
    Частота кадров : 31, 250 кадров/сек (1536 SPF)
    Метод сжатия : С потерями
    Размер потока : 449 Мбайт (1%)
    Заголовок : Полное дублирование
    Язык : Russian
    ServiceKind/String : Complete Main
    Default : Да
    Forced : Нет
    Аудио #2
    Идентификатор : 3
    Формат : DTS XLL X
    Формат/Информация : Digital Theater Systems
    Коммерческое название : DTS-HD Master Audio
    Идентификатор кодека : A_DTS
    Продолжительность : 1 ч. 38 м.
    Вид битрейта : Переменный
    Битрейт : 5554 Кбит/сек
    Каналы : 8 каналов
    Channel(s)_Original : Object Based
    ChannelLayout_Original : Object Based
    Частота : 48, 0 КГц
    Частота кадров : 93, 750 кадра/сек (512 SPF)
    Размер потока : 3, 81 Гбайт (11%)
    Заголовок : Оригинал
    Язык : English
    Default : Нет
    Forced : Нет
    Текст #1
    Идентификатор : 4
    Формат : UTF-8
    Идентификатор кодека : S_TEXT/UTF8
    Идентификатор кодека/Информация : UTF-8 Plain Text
    Продолжительность : 1 ч. 36 м.
    Битрейт : 71 бит/сек
    ElementCount : 875
    Размер потока : 50, 8 Кбайт (0%)
    Заголовок : BD RUS полные
    Язык : Russian
    Default : Нет
    Forced : Нет
    Текст #2
    Идентификатор : 5
    Формат : UTF-8
    Идентификатор кодека : S_TEXT/UTF8
    Идентификатор кодека/Информация : UTF-8 Plain Text
    Продолжительность : 1 ч. 28 м.
    Битрейт : 46 бит/сек
    ElementCount : 916
    Размер потока : 29, 9 Кбайт (0%)
    Заголовок : English-SRT
    Язык : English
    Default : Да
    Forced : Нет
    Меню
    00: 00: 00.000 : : Chapter 1
    00: 09: 03.793 : : Chapter 2
    00: 11: 56.006 : : Chapter 3
    00: 15: 35.059 : : Chapter 4
    00: 22: 21.089 : : Chapter 5
    00: 28: 05.725 : : Chapter 6
    00: 33: 38.224 : : Chapter 7
    00: 39: 31.160 : : Chapter 8
    00: 43: 52.713 : : Chapter 9
    00: 47: 32.391 : : Chapter 10
    00: 50: 11.216 : : Chapter 11
    01: 00: 19.824 : : Chapter 12
    01: 05: 11.407 : : Chapter 13
    01: 09: 52.188 : : Chapter 14
    01: 13: 02.211 : : Chapter 15
    01: 23: 50.066 : : Chapter 16
    01: 29: 18.519 : : Chapter 17

    Скриншоты для ознакомления



    Все одноименные релизы в Клубе
    Время раздачи: c 5 до 19 мск (до появления первых 3-5 скачавших)

    Онлайн видео Как приручить дракона



    Как приручить дракона/How to Train Your Dragon (2010) UHD BDRemux [H.265/2160p] [4K, HDR, 10-bit]
    Рейтинг →
     (голосов: 1, оценка 3/5, голосовать можно 1 раз )

    Другие торренты по теме:

  • Как приручить дракона 2 / How to Train Your Dragon 2 (2014) BDRip [1080p]
  • Как приручить дракона 2 / How to Train Your Dragon 2 (2014) Blu-ray 3D [1080p]
  • Как приручить дракона 2 / How to Train Your Dragon 2 (2014) BDRemux 3D [1080p] [3D / 2D] скачать через торрент бесплатно
  • Как приручить дракона 2 / How to Train Your Dragon 2 (2014) BDRip [1080p] 3D [Вертикальная анаморфная стереопара] скачать через торрент бесплатно
  • Как приручить дракона 2 / How to Train Your Dragon 2 (2014) BDRip [720p] скачать через торрент бесплатно
  • Как приручить дракона 2 / How to Train Your Dragon 2 (2014) Blu-ray [1080p] скачать через торрент бесплатно
  • Как приручить дракона 2 / How to Train Your Dragon 2 (2014) BDRemux [1080p]
  • Как приручить дракона 2 / How to Train Your Dragon 2 (2014) BDRip [H.264]


    • Комментарии (0):

      Информация

      Информация

        Посетители, находящиеся в группе Гости, не могут оставлять комментарии в данной новости.

        ↓ Меню




        ↓ Опрос

        Вы добавили сайт в закладки?
        Да
        Нет


        Популярное