.
Авторизация | Регистрация
bitok.xyz
» » Как приручить дракона 2 / How To Train Your Dragon 2 (2014) UHD BDRemux [H.265 / 2160p] [4K, HDR, 10-bit] торрент скачать бесплатно


    Как приручить дракона 2 / How To Train Your Dragon 2 (2014) UHD BDRemux [H.265 / 2160p] [4K, HDR, 10-bit] торрент скачать бесплатно

    Дата: 29-10-2019, 05:00 | .torrent скачали: 1

    Как приручить дракона 2 / How To Train Your Dragon 2 (2014) UHD BDRemux [H.265 / 2160p] [4K, HDR, 10-bit]Производство: США/DreamWorks Animation
    Жанр: мультфильм, фэнтези, комедия, приключения, семейный
    Режиссер: Дин ДеБлуа

    Описание

    С момента примирения викингов и драконов прошло пять лет. Пока Астрид, Сморкала и остальные ребята проводят время, соревнуясь друг с другом в популярных на острове драконьих гонках, Иккинг и Беззубик путешествуют по небу, составляя карту неизвестных мест. Когда одно из их приключений приводит к открытию тайной ледяной пещеры, которая является домом для сотен ранее невиданных диких драконов и таинственного драконьего всадника, два друга оказываются в центре битвы за защиту мира.

    Возраст: 0+ (для любой зрительской аудитории)
    Рейтинг MPAA: PG (рекомендуется присутствие родителей)
    Продолжительность: 01: 41: 55
    Качество видео: UHD BDRemux
    Перевод: Дублированный
    Субтитры: русские, английские
    Видео: HEVC/H.265, 3840x2160, ~37.6 mbps
    Аудио: DTS, 6 ch, 768 kbps, Русский (DUB)
    Аудио: DTS-HD MA, 6 ch, 6553 kbps, Английский
    Общее
    Уникальный идентификатор : 230148059719148679701498974135302649910 (0xAD24E76B99383307C1FFEBAD5A067836)
    Полное имя : D: MULTHow.to.Train.Your.Dragon.2.2014.BluRay.REMUX.HEVC.HDR.mkv
    Формат : Matroska
    Версия формата : Version 4
    Размер файла : 32, 0 Гбайт
    Продолжительность : 1 ч. 41 м.
    Режим общего битрейта : Переменный
    Общий поток : 44, 9 Мбит/сек
    Дата кодирования : UTC 2019-01-11 20: 20: 00
    Программа кодирования : mkvmerge v30.1.0 (\'Forever And More\') 64-bit
    Библиотека кодирования : libebml v1.3.6 + libmatroska v1.4.9
    Attachments : poster.jpg
    Видео
    Идентификатор : 1
    Формат : HEVC
    Формат/Информация : High Efficiency Video Coding
    Профиль формата : Main10@L5.1@High
    HDR_Format/String : SMPTE ST 2086, HDR10 compatible
    Идентификатор кодека : V_MPEGH/ISO/HEVC
    Продолжительность : 1 ч. 41 м.
    Битрейт : 37, 6 Мбит/сек
    Ширина : 3840 пикселей
    Высота : 2160 пикселей
    Соотношение сторон : 16: 9
    Режим частоты кадров : Постоянный
    Частота кадров : 23, 976 (24000/1001) кадра/сек
    Цветовое пространство : YUV
    Субдискретизация насыщенности : 4: 2: 0 (Type 2)
    Битовая глубина : 10 бит
    Бит/(Пиксели*Кадры) : 0.189
    Размер потока : 26, 7 Гбайт (84%)
    Default : Да
    Forced : Нет
    Цветовой диапазон : Limited
    Основные цвета : BT.2020
    Характеристики трансфера : PQ
    Коэффициенты матрицы : BT.2020 non-constant
    MasteringDisplay_ColorPrimaries : Display P3
    MasteringDisplay_Luminance : min: 0.0050 cd/m2, max: 1000 cd/m2
    MaxCLL : 922 cd/m2
    MaxFALL : 239 cd/m2
    Аудио #1
    Идентификатор : 2
    Формат : DTS
    Формат/Информация : Digital Theater Systems
    Идентификатор кодека : A_DTS
    Продолжительность : 1 ч. 41 м.
    Вид битрейта : Постоянный
    Битрейт : 768 Кбит/сек
    Каналы : 6 каналов
    ChannelLayout : C L R Ls Rs LFE
    Частота : 48, 0 КГц
    Частота кадров : 93, 750 кадра/сек (512 SPF)
    Битовая глубина : 24 бит
    Метод сжатия : С потерями
    Задержка видео : -17 мс.
    Размер потока : 559 Мбайт (2%)
    Заголовок : Полное дублирование
    Язык : Russian
    Default : Да
    Forced : Нет
    Аудио #2
    Идентификатор : 3
    Формат : DTS XLL X
    Формат/Информация : Digital Theater Systems
    Коммерческое название : DTS-HD Master Audio
    Идентификатор кодека : A_DTS
    Продолжительность : 1 ч. 41 м.
    Вид битрейта : Переменный
    Битрейт : 6553 Кбит/сек
    Каналы : 8 каналов
    Channel(s)_Original : Object Based
    ChannelLayout_Original : Object Based
    Частота : 48, 0 КГц
    Частота кадров : 93, 750 кадра/сек (512 SPF)
    Битовая глубина : 24 бит
    Размер потока : 4, 66 Гбайт (15%)
    Заголовок : Оригинал
    Язык : English
    Default : Нет
    Forced : Нет
    Текст #1
    Идентификатор : 4
    Формат : UTF-8
    Идентификатор кодека : S_TEXT/UTF8
    Идентификатор кодека/Информация : UTF-8 Plain Text
    Продолжительность : 1 ч. 31 м.
    Битрейт : 76 бит/сек
    ElementCount : 1144
    Размер потока : 51, 4 Кбайт (0%)
    Заголовок : Полные
    Язык : Russian
    Default : Нет
    Forced : Нет
    Текст #2
    Идентификатор : 5
    Формат : UTF-8
    Идентификатор кодека : S_TEXT/UTF8
    Идентификатор кодека/Информация : UTF-8 Plain Text
    Продолжительность : 1 ч. 31 м.
    Битрейт : 49 бит/сек
    ElementCount : 1369
    Размер потока : 33, 1 Кбайт (0%)
    Заголовок : English-SRT
    Язык : English
    Default : Да
    Forced : Нет
    Меню
    00: 00: 00.000 : : Chapter 1
    00: 03: 31.920 : : Chapter 2
    00: 05: 24.615 : : Chapter 3
    00: 07: 49.927 : : Chapter 4
    00: 10: 19.952 : : Chapter 5
    00: 13: 20.257 : : Chapter 6
    00: 17: 02.980 : : Chapter 7
    00: 20: 05.621 : : Chapter 8
    00: 23: 47.175 : : Chapter 9
    00: 27: 18.386 : : Chapter 10
    00: 29: 25.388 : : Chapter 11
    00: 33: 45.857 : : Chapter 12
    00: 37: 09.393 : : Chapter 13
    00: 39: 10.890 : : Chapter 14
    00: 41: 03.085 : : Chapter 15
    00: 45: 07.913 : : Chapter 16
    00: 47: 20.546 : : Chapter 17
    00: 51: 55.445 : : Chapter 18
    00: 54: 39.651 : : Chapter 19
    00: 56: 19.918 : : Chapter 20
    01: 00: 37.091 : : Chapter 21
    01: 04: 32.702 : : Chapter 22
    01: 06: 38.869 : : Chapter 23
    01: 09: 48.058 : : Chapter 24
    01: 14: 05.023 : : Chapter 25
    01: 18: 39.047 : : Chapter 26
    01: 21: 11.074 : : Chapter 27
    01: 22: 58.974 : : Chapter 28
    01: 24: 33.985 : : Chapter 29
    01: 28: 08.574 : : Chapter 30
    01: 31: 07.420 : : Chapter 31
    01: 32: 25.915 : : Chapter 32

    Скриншоты для ознакомления



    Все одноименные релизы в Клубе
    Время раздачи: c 5 до 19 мск (до появления первых 3-5 скачавших)

    Онлайн видео Как приручить дракона 2



    Как приручить дракона 2/How To Train Your Dragon 2 (2014) UHD BDRemux [H.265/2160p] [4K, HDR, 10-bit]
    Рейтинг →
     (голосов: 1, оценка 4/5, голосовать можно 1 раз )

    Другие торренты по теме:

  • Как приручить дракона 2 / How to Train Your Dragon 2 (2014) BDRip [1080p]
  • Как приручить дракона 2 / How to Train Your Dragon 2 (2014) Blu-ray 3D [1080p]
  • Как приручить дракона 2 / How to Train Your Dragon 2 (2014) BDRemux 3D [1080p] [3D / 2D] скачать через торрент бесплатно
  • Как приручить дракона 2 / How to Train Your Dragon 2 (2014) BDRip [1080p] 3D [Вертикальная анаморфная стереопара] скачать через торрент бесплатно
  • Как приручить дракона 2 / How to Train Your Dragon 2 (2014) BDRip [720p] скачать через торрент бесплатно
  • Как приручить дракона 2 / How to Train Your Dragon 2 (2014) Blu-ray [1080p] скачать через торрент бесплатно
  • Как приручить дракона 2 / How to Train Your Dragon 2 (2014) BDRemux [1080p]
  • Как приручить дракона 2 / How to Train Your Dragon 2 (2014) BDRip [H.264]


    • Комментарии (0):

      Информация

      Информация

        Посетители, находящиеся в группе Гости, не могут оставлять комментарии в данной новости.

        ↓ Меню




        ↓ Опрос

        Вы добавили сайт в закладки?
        Да
        Нет


        Популярное