.
Авторизация | Регистрация
bitok.xyz
» » Рапунцель: Запутанная история / Tangled (2010) UHD BDRemux [H.265 / 2160p] [4K, HDR, 10-bit] торрент скачать бесплатно


    Рапунцель: Запутанная история / Tangled (2010) UHD BDRemux [H.265 / 2160p] [4K, HDR, 10-bit] торрент скачать бесплатно

    Дата: 30-10-2019, 05:00 | .torrent скачали: 1

    Рапунцель: Запутанная история / Tangled (2010) UHD BDRemux [H.265 / 2160p] [4K, HDR, 10-bit]Производство: США/Walt Disney Animation Studios, Walt Disney Pictures
    Жанр: Приключения, Фэнтези, Комедия
    Режиссер: Нэйтан Грено, Байрон Ховард

    Описание

    Обаятельный разбойник Флинн путешествует по жизни с легкостью, лишь потому, что он красив, болтлив и удачлив. И, казалось, фортуна всегда на его стороне, пока однажды он не выбирает высокую башню в густой чаще леса в качестве спокойного убежища. Флинн оказывается связанным по рукам и ногам юной красавицей по имени Рапунцель.
    Если вы думаете, что самое интересное в ней — это 21 метр волшебных золотистых волос, то вы заблуждаетесь! Запертая в башне и отчаянно ищущая приключений, Рапунцель решает использовать Флинна в качестве билета в большой мир. Сначала комичное похищение, затем невинный шантаж — и вот наши герои на воле. Вместе с главными героями в авантюрное путешествие отправятся бравый конь-ищейка Максимус, ручной хамелеон и шайка сумасбродных разбойников.

    Возраст: 6+ (зрителям, достигшим 6 лет)
    Рейтинг MPAA: PG (рекомендуется присутствие родителей)
    Релиз от: selezen
    Продолжительность: 01: 40: 57
    Качество видео: UHD BDRemux
    Перевод: Дублированный, Многоголосый, Авторский
    Субтитры: Русские, Английские
    Видео: HEVC/H.265, 3840x2160, ~52, 5 Mbps
    Аудио 1: AC3, 6 ch, 640 Kbps - Русский (DUB, Лицензия)
    Аудио 2: DTS-HD MA, 8 ch, 2046 Kbps - Русский (MVO, Кубик в Кубе)
    Аудио 3: DTS-HD MA, 8 ch, 2046 Kbps - Русский (AVO, Сербин)
    Аудио 4: DTS-HD MA, 8 ch, 2046 Kbps - Русский (AVO, Гаврилов №1)
    Аудио 5: DTS-HD MA, 8 ch, 2046 Kbps - Русский (AVO, Гаврилов №2)
    Аудио 6: TrueHD, 8 ch, 7753 Kbps - Английский
    Аудио 7: AC3, 6 ch, 640 Kbps - Английский
    Общее
    Уникальный идентификатор : 229036038168939828954623267259503407283 (0xAC4EBC865EF646566BEC6AD255FCF0B3)
    Полное имя : E: Tangled.2010.BDREMUX.2160p.HDR.seleZen.mkv
    Формат : Matroska
    Версия формата : Version 4
    Размер файла : 48, 4 Гбайт
    Продолжительность : 1 ч. 40 м.
    Режим общего битрейта : Переменный
    Общий поток : 68, 6 Мбит/сек
    Название фильма : Tangled 2010 4K from селезень
    Дата кодирования : UTC 2019-10-26 15: 18: 25
    Программа кодирования : mkvmerge v22.0.0 (\'At The End Of The World\') 64-bit
    Библиотека кодирования : libebml v1.3.5 + libmatroska v1.4.8
    IsTruncated : Yes
    Видео
    Идентификатор : 1
    Формат : HEVC
    Формат/Информация : High Efficiency Video Coding
    Коммерческое название : HDR10
    Профиль формата : Main10@L5.1@High
    Идентификатор кодека : V_MPEGH/ISO/HEVC
    Продолжительность : 1 ч. 40 м.
    Ширина : 3840 пикселей
    Высота : 2160 пикселей
    Соотношение сторон : 16: 9
    Режим частоты кадров : Постоянный
    Частота кадров : 23, 976 (24000/1001) кадра/сек
    Цветовое пространство : YUV
    Субдискретизация насыщенности : 4: 2: 0 (Type 2)
    Битовая глубина : 10 бит
    Библиотека кодирования : ATEME Titan File 3.9.0 (4.9.0.0)
    Язык : English
    Default : Нет
    Forced : Нет
    Цветовой диапазон : Limited
    Основные цвета : BT.2020
    Характеристики трансфера : PQ
    Коэффициенты матрицы : BT.2020 non-constant
    MasteringDisplay_ColorPrimaries : Display P3
    MasteringDisplay_Luminance : min: 0.0001 cd/m2, max: 1000 cd/m2
    Аудио #1
    Идентификатор : 2
    Формат : AC-3
    Формат/Информация : Audio Coding 3
    Коммерческое название : Dolby Digital
    Идентификатор кодека : A_AC3
    Продолжительность : 1 ч. 40 м.
    Вид битрейта : Постоянный
    Битрейт : 640 Кбит/сек
    Каналы : 6 каналов
    Channel layout : L R C LFE Ls Rs
    Частота : 48, 0 КГц
    Частота кадров : 31, 250 кадров/сек (1536 SPF)
    Битовая глубина : 16 бит
    Метод сжатия : С потерями
    Размер потока : 462 Мбайт (1%)
    Заголовок : Dub License
    Язык : Russian
    ServiceKind/String : Complete Main
    Default : Да
    Forced : Да
    Аудио #2
    Идентификатор : 3
    Формат : DTS XBR
    Формат/Информация : Digital Theater Systems
    Коммерческое название : DTS-HD High Resolution Audio
    Идентификатор кодека : A_DTS
    Продолжительность : 1 ч. 40 м.
    Вид битрейта : Постоянный
    Битрейт : 2046 Кбит/сек
    Каналы : 8 каналов
    Channel layout : C L R LFE Lb Rb Lss Rss
    Частота : 48, 0 КГц
    Частота кадров : 93, 750 кадра/сек (512 SPF)
    Битовая глубина : 24 бит
    Метод сжатия : С потерями
    Размер потока : 1, 44 Гбайт (3%)
    Заголовок : MVO Кубик в кубике
    Язык : Russian
    Default : Нет
    Forced : Нет
    Аудио #3
    Идентификатор : 4
    Формат : DTS XBR
    Формат/Информация : Digital Theater Systems
    Коммерческое название : DTS-HD High Resolution Audio
    Идентификатор кодека : A_DTS
    Продолжительность : 1 ч. 40 м.
    Вид битрейта : Постоянный
    Битрейт : 2046 Кбит/сек
    Каналы : 8 каналов
    Channel layout : C L R LFE Lb Rb Lss Rss
    Частота : 48, 0 КГц
    Частота кадров : 93, 750 кадра/сек (512 SPF)
    Битовая глубина : 24 бит
    Метод сжатия : С потерями
    Размер потока : 1, 44 Гбайт (3%)
    Заголовок : AVO Сербин
    Язык : Russian
    Default : Нет
    Forced : Нет
    Аудио #4
    Идентификатор : 5
    Формат : DTS XBR
    Формат/Информация : Digital Theater Systems
    Коммерческое название : DTS-HD High Resolution Audio
    Идентификатор кодека : A_DTS
    Продолжительность : 1 ч. 40 м.
    Вид битрейта : Постоянный
    Битрейт : 2046 Кбит/сек
    Каналы : 8 каналов
    Channel layout : C L R LFE Lb Rb Lss Rss
    Частота : 48, 0 КГц
    Частота кадров : 93, 750 кадра/сек (512 SPF)
    Битовая глубина : 24 бит
    Метод сжатия : С потерями
    Размер потока : 1, 44 Гбайт (3%)
    Заголовок : AVO Гаврилов №1
    Язык : Russian
    Default : Нет
    Forced : Нет
    Аудио #5
    Идентификатор : 6
    Формат : DTS XBR
    Формат/Информация : Digital Theater Systems
    Коммерческое название : DTS-HD High Resolution Audio
    Идентификатор кодека : A_DTS
    Продолжительность : 1 ч. 40 м.
    Вид битрейта : Постоянный
    Битрейт : 2046 Кбит/сек
    Каналы : 8 каналов
    Channel layout : C L R LFE Lb Rb Lss Rss
    Частота : 48, 0 КГц
    Частота кадров : 93, 750 кадра/сек (512 SPF)
    Битовая глубина : 24 бит
    Метод сжатия : С потерями
    Размер потока : 1, 44 Гбайт (3%)
    Заголовок : AVO Гаврилов №2
    Язык : Russian
    Default : Нет
    Forced : Нет
    Аудио #6
    Идентификатор : 7
    Формат : MLP FBA 16-ch
    Формат/Информация : Meridian Lossless Packing FBA with 16-channel presentation
    Коммерческое название : Dolby TrueHD with Dolby Atmos
    Идентификатор кодека : A_TRUEHD
    Продолжительность : 1 ч. 40 м.
    Вид битрейта : Переменный
    Максимальный битрейт : 7753 Кбит/сек
    Каналы : 8 каналов
    Channel layout : L R C LFE Ls Rs Lb Rb
    Частота : 48, 0 КГц
    Частота кадров : 1200, 000 кадров/сек (40 SPF)
    Метод сжатия : Без потерь
    Заголовок : Original
    Язык : English
    Default : Нет
    Forced : Нет
    Number of dynamic objects : 13
    Bed channel count : 1 канал
    Bed channel configuration : LFE
    Аудио #7
    Идентификатор : 8
    Формат : AC-3
    Формат/Информация : Audio Coding 3
    Коммерческое название : Dolby Digital
    Идентификатор кодека : A_AC3
    Продолжительность : 1 ч. 40 м.
    Вид битрейта : Постоянный
    Битрейт : 640 Кбит/сек
    Каналы : 6 каналов
    Channel layout : L R C LFE Ls Rs
    Частота : 48, 0 КГц
    Частота кадров : 31, 250 кадров/сек (1536 SPF)
    Битовая глубина : 16 бит
    Метод сжатия : С потерями
    Размер потока : 462 Мбайт (1%)
    Язык : English
    ServiceKind/String : Complete Main
    Default : Нет
    Forced : Нет
    Текст #1
    Идентификатор : 9
    Формат : UTF-8
    Идентификатор кодека : S_TEXT/UTF8
    Идентификатор кодека/Информация : UTF-8 Plain Text
    Заголовок : Full
    Язык : Russian
    Default : Нет
    Forced : Нет
    Текст #2
    Идентификатор : 10
    Формат : UTF-8
    Идентификатор кодека : S_TEXT/UTF8
    Идентификатор кодека/Информация : UTF-8 Plain Text
    Заголовок : Full
    Язык : English
    Default : Нет
    Forced : Нет
    Меню
    00: 00: 00.000 : en: The Lost Princess
    00: 08: 20.958 : en: Mother Knows Best
    00: 15: 43.275 : en: Meet Flynn Rider
    00: 24: 41.229 : en: Making a Deal
    00: 34: 42.163 : en: The Snuggly Duckling
    00: 42: 30.881 : en: The Escape
    00: 50: 25.939 : en: In the Woods
    00: 59: 21.933 : en: The Best Day of Your Life
    01: 10: 35.647 : en: Betrayed
    01: 19: 23.425 : en: The Rescue
    01: 25: 22.033 : en: A New Dream
    01: 31: 20.891 : en: End Credits
    Диск на Blu-ray.com
    Просмотр 4K HDR-контента на ПК
    Скриншоты для ознакомления



    Все одноименные релизы в Клубе
    Время раздачи: Мультитрекер (до появления первых 3-5 скачавших)

    Онлайн видео Рапунцель: Запутанная история



    Рапунцель: Запутанная история/Tangled (2010) UHD BDRemux [H.265/2160p] [4K, HDR, 10-bit]
    Рейтинг →
     (голосов: 1, оценка 3/5, голосовать можно 1 раз )

    Другие торренты по теме:

  • Рапунцель: Запутанная история / Tangled (2010) [H.264 / 720p] [hand made 60fps] скачать через торрент бесплатно


    • Комментарии (0):

      Информация

      Информация

        Посетители, находящиеся в группе Гости, не могут оставлять комментарии в данной новости.

        ↓ Меню




        ↓ Опрос

        Вы добавили сайт в закладки?
        Да
        Нет


        Популярное