.
Авторизация | Регистрация
bitok.xyz
» » Путешествия пана Кляксы / Podroze pana Kleksa (1986) HDRip [H.264] торрент скачать бесплатно


    Путешествия пана Кляксы / Podroze pana Kleksa (1986) HDRip [H.264] торрент скачать бесплатно

    Дата: 30-10-2019, 05:00 | .torrent скачали: 4

    Путешествия пана Кляксы / Podroze pana Kleksa (1986) HDRip [H.264]Производство: Польша, СССР/Киностудия им. М. Горького, Совинфильм, Zespol Filmowy Zodiak
    Жанр: Фэнтези, Приключения, Семейный
    Режиссер: Кшиштоф Градовский

    Актеры
    Петр Фрончевский, Малгожата Островска, Хенрик Биста, Збигнев Бучковский, Георгий Вицин, Ирина Губанова, Ежи Бончак, Марчин Барански, Веслав Михниковский, Владислав Ковальский, Леон Немчик, Ежи Крышак

    Описание

    Продолжение фильма Академия пана Кляксы. На этот раз в стране сказок произошли чрезвычайные события: таинственные силы украли бочку с волшебными чернилами, и стало нечем записывать сказки!

    Возраст: 6+ (зрителям, достигшим 6 лет)
    Релиз от: Охрана (NNMCLUB)
    Продолжительность: 02: 40: 38
    Качество видео: HDRip
    Перевод: Дублированный, киностудия им. М. Горького
    Субтитры: Отсутствуют
    Видео: AVC/H.264, 1024x576, ~2575 Kbps
    Аудио: AC3, 2 ch, 192 Kbps
    Общее
    Уникальный идентификатор : 208516804268587268258529332556232084702 (0x9CDEE02F8179CAD8BED0B2D7938B4CDE)
    Полное имя : B: DownloadsПутешествия пана Кляксы. 1986. NNMCLUB.mkv
    Формат : Matroska
    Версия формата : Version 4/Version 2
    Размер файла : 3, 11 Гбайт
    Продолжительность : 2 ч. 40 м.
    Общий поток : 2768 Кбит/сек
    Дата кодирования : UTC 2019-10-21 12: 16: 53
    Программа кодирования : mkvmerge v7.9.0 (\'Birds\') 64bit
    Библиотека кодирования : libebml v1.3.1 + libmatroska v1.4.2
    Видео
    Идентификатор : 1
    Формат : AVC
    Формат/Информация : Advanced Video Codec
    Профиль формата : High@L4.1
    Настройки формата : CABAC/12 Ref Frames
    Параметр CABAC формата : Да
    Параметр RefFrames формата : 12 кадров
    Идентификатор кодека : V_MPEG4/ISO/AVC
    Продолжительность : 2 ч. 40 м.
    Битрейт : 2575 Кбит/сек
    Ширина : 1024 пикселя
    Высота : 576 пикселей
    Соотношение сторон : 16: 9
    Режим частоты кадров : Постоянный
    Частота кадров : 24, 000 кадра/сек
    Цветовое пространство : YUV
    Субдискретизация насыщенности : 4: 2: 0
    Битовая глубина : 8 бит
    Тип развёртки : Прогрессивная
    Бит/(Пиксели*Кадры) : 0.182
    Размер потока : 2, 89 Гбайт (93%)
    Заголовок : Podróze pana Kleksa
    Библиотека кодирования : x264 core 146 r2538 121396c
    Настройки программы : cabac=1/ref=12/deblock=1: -1: -1/analyse=0x3: 0x113/me=umh/subme=10/psy=1/psy_rd=1.00: 0.10/mixed_ref=1/me_range=32/chroma_me=1/trellis=2/8x8dct=1/cqm=0/deadzone=21, 11/fast_pskip=0/chroma_qp_offset=-3/threads=6/lookahead_threads=1/sliced_threads=0/nr=0/decimate=0/interlaced=0/bluray_compat=0/constrained_intra=0/bframes=7/b_pyramid=2/b_adapt=2/b_bias=0/direct=3/weightb=1/open_gop=0/weightp=2/keyint=250/keyint_min=25/scenecut=40/intra_refresh=0/rc_lookahead=60/rc=2pass/mbtree=1/bitrate=2575/ratetol=1.0/qcomp=0.60/qpmin=0/qpmax=69/qpstep=4/cplxblur=20.0/qblur=0.5/vbv_maxrate=14000/vbv_bufsize=14000/nal_hrd=none/filler=0/ip_ratio=1.40/aq=1: 1.00
    Язык : Polish
    Default : Да
    Forced : Нет
    Аудио
    Идентификатор : 2
    Формат : AC-3
    Формат/Информация : Audio Coding 3
    Идентификатор кодека : A_AC3
    Продолжительность : 2 ч. 40 м.
    Вид битрейта : Постоянный
    Битрейт : 192 Кбит/сек
    Каналы : 2 канала
    Расположение каналов : Front: L R
    Частота : 48, 0 КГц
    Частота кадров : 31, 250 кадров/сек (1536 SPF)
    Битовая глубина : 16 бит
    Метод сжатия : С потерями
    Размер потока : 221 Мбайт (7%)
    Заголовок : Дублированный
    Язык : Russian
    ServiceKind/String : Complete Main
    Default : Да
    Forced : Нет

    Скриншоты для ознакомления




    Все одноименные релизы в Клубе
    Время раздачи: с 13: 00 до 01: 00 МСК, выходные круглосуточно (до появления первых 3-5 скачавших)

    Онлайн видео Путешествия пана Кляксы



    Путешествия пана Кляксы/Podroze pana Kleksa (1986) HDRip [H.264]
    Рейтинг →
     (голосов: 1, оценка 5/5, голосовать можно 1 раз )

    Другие торренты по теме:

  • Путешествия Адибу: Как устроен человек / Adiboo Adventure: Inside The Human Body (2006) SATRip (40 из 40 серий) скачать через торрент бесплатно
  • Б. М. Кедров | Беседы о диалектике. Шестидневные философские диалоги во время путешествия (2007) [DJVU, PDF] скачать через торрент бесплатно
  • Рыболовные путешествия (2010 г., 31-выпуск) TVRip
  • Путешествия Боба и Бобби / Bob a Bobek, kralici z klobouku (2001-2003) DVD 5 (Выпуск 1, 12 серий) скачать через торрент бесплатно
  • Весёлая хроника опасного путешествия / Argonavtebi (1986) DVDRip
  • Путешествия с моей тетей / Travels with My Aunt (1972) DVDRip [H.264]
  • Рудольф Эрих Распе | Приключения и путешествия барона Мюнхгаузена (1912) [FB2] скачать через торрент бесплатно
  • Робин Дэвидсон | Путешествия никогда не кончаются (1991) [FB2, EPUB, TXT] скачать через торрент бесплатно


    • Комментарии (0):

      Информация

      Информация

        Посетители, находящиеся в группе Гости, не могут оставлять комментарии в данной новости.

        ↓ Меню




        ↓ Опрос

        Вы добавили сайт в закладки?
        Да
        Нет


        Популярное