.
Авторизация | Регистрация
bitok.xyz
» » Пан Клякса в космосе / Pan Kleks w kosmosie (1988) HDRip [H.264] [VO] торрент скачать бесплатно


    Пан Клякса в космосе / Pan Kleks w kosmosie (1988) HDRip [H.264] [VO] торрент скачать бесплатно

    Дата: 30-10-2019, 05:00 | .torrent скачали: 0

    Пан Клякса в космосе / Pan Kleks w kosmosie (1988) HDRip [H.264] [VO]Производство: Польша, Чехословакия/SFT Koliba, Wytwórnia Filmów Fabularnych (WFF) Wroclaw
    Жанр: Фантастика, Приключения, Семейный
    Режиссер: Кшиштоф Градовский

    Актеры
    Петр Фрончевский, Хенрик Биста, Збигнев Бучковский, Мариан Глинка, Ян Химильсбах, Ян Янковский, Эмилиан Каминьский, Изабелла Мико, Марыля Родович, Моника Сапилак

    Описание

    Дети из детдома в Малишеве получают на Рождество в подарок новейший компьютер от бывшего воспитанника этого детдома, а ныне президента большой электронной корпорации. Компьютер им рассказывает историю, которая может произойти через 25 лет. Великий Электроник после побега с Острова Изобретателей, оседает на планете Манго и изобретает Фантомизацию (телепортацию). Похищает Агнешку и отдает ее губернатору планеты дону Базару. А в это время пан Клякса находится в последнем Заповеднике Природы. Горошек, друг Агнешки, вместе с друзьями по классу отправляется к Кляксе за помощью в поисках Агнешки…

    Релиз от: Охрана (NNMCLUB)
    Продолжительность: 02: 17: 00
    Качество видео: HDRip
    Перевод: Одноголосый любительский, Никита Бакулин
    Субтитры: Отсутствуют
    Видео: AVC/H.264, 1024x576, ~2650 Kbps
    Аудио: AC3, 2 ch, 384 Kbps
    Общее
    Уникальный идентификатор : 181183971078024659466893275778562924962 (0x884EC376FA767CE1A6B8AFC5CD9C21A2)
    Полное имя : B: DownloadsПан Клякса в космосе. 1988. NNMCLUB.mkv
    Формат : Matroska
    Версия формата : Version 4/Version 2
    Размер файла : 2, 91 Гбайт
    Продолжительность : 2 ч. 17 м.
    Общий поток : 3036 Кбит/сек
    Дата кодирования : UTC 2019-10-21 22: 04: 36
    Программа кодирования : mkvmerge v7.9.0 (\'Birds\') 64bit
    Библиотека кодирования : libebml v1.3.1 + libmatroska v1.4.2
    Видео
    Идентификатор : 1
    Формат : AVC
    Формат/Информация : Advanced Video Codec
    Профиль формата : High@L4.1
    Настройки формата : CABAC/12 Ref Frames
    Параметр CABAC формата : Да
    Параметр RefFrames формата : 12 кадров
    Идентификатор кодека : V_MPEG4/ISO/AVC
    Продолжительность : 2 ч. 17 м.
    Битрейт : 2650 Кбит/сек
    Ширина : 1024 пикселя
    Высота : 576 пикселей
    Соотношение сторон : 16: 9
    Режим частоты кадров : Постоянный
    Частота кадров : 24, 000 кадра/сек
    Цветовое пространство : YUV
    Субдискретизация насыщенности : 4: 2: 0
    Битовая глубина : 8 бит
    Тип развёртки : Прогрессивная
    Бит/(Пиксели*Кадры) : 0.187
    Размер потока : 2, 54 Гбайт (87%)
    Заголовок : Pan Kleks w kosmosie
    Библиотека кодирования : x264 core 146 r2538 121396c
    Настройки программы : cabac=1/ref=12/deblock=1: -1: -1/analyse=0x3: 0x113/me=umh/subme=10/psy=1/psy_rd=1.00: 0.10/mixed_ref=1/me_range=32/chroma_me=1/trellis=2/8x8dct=1/cqm=0/deadzone=21, 11/fast_pskip=0/chroma_qp_offset=-3/threads=6/lookahead_threads=1/sliced_threads=0/nr=0/decimate=0/interlaced=0/bluray_compat=0/constrained_intra=0/bframes=7/b_pyramid=2/b_adapt=2/b_bias=0/direct=3/weightb=1/open_gop=0/weightp=2/keyint=250/keyint_min=25/scenecut=40/intra_refresh=0/rc_lookahead=60/rc=2pass/mbtree=1/bitrate=2650/ratetol=1.0/qcomp=0.60/qpmin=0/qpmax=69/qpstep=4/cplxblur=20.0/qblur=0.5/vbv_maxrate=14000/vbv_bufsize=14000/nal_hrd=none/filler=0/ip_ratio=1.40/aq=1: 1.00
    Язык : Polish
    Default : Да
    Forced : Нет
    Аудио
    Идентификатор : 2
    Формат : AC-3
    Формат/Информация : Audio Coding 3
    Идентификатор кодека : A_AC3
    Продолжительность : 2 ч. 17 м.
    Вид битрейта : Постоянный
    Битрейт : 384 Кбит/сек
    Каналы : 2 канала
    Расположение каналов : Front: L R
    Частота : 48, 0 КГц
    Частота кадров : 31, 250 кадров/сек (1536 SPF)
    Битовая глубина : 16 бит
    Метод сжатия : С потерями
    Размер потока : 376 Мбайт (13%)
    Заголовок : Одноголосый закадровый, Никита Бакулин
    Язык : Russian
    ServiceKind/String : Complete Main
    Default : Да
    Forced : Нет

    Скриншоты для ознакомления




    Все одноименные релизы в Клубе
    Время раздачи: с 13: 00 до 01: 00 МСК, выходные круглосуточно (до появления первых 3-5 скачавших)

    Онлайн видео Пан Клякса в космосе



    Пан Клякса в космосе/Pan Kleks w kosmosie (1988) HDRip [H.264] [VO]
    Рейтинг →
     (голосов: 1, оценка 3/5, голосовать можно 1 раз )

    Другие торренты по теме:



      Комментарии (0):

      Информация

      Информация

        Посетители, находящиеся в группе Гости, не могут оставлять комментарии в данной новости.

        ↓ Меню




        ↓ Опрос

        Вы добавили сайт в закладки?
        Да
        Нет


        Популярное