.
Авторизация | Регистрация
bitok.xyz
» » В стране невыученных уроков (1969) HDTVRip [H.264 / 720p-LQ] торрент скачать бесплатно


    В стране невыученных уроков (1969) HDTVRip [H.264 / 720p-LQ] торрент скачать бесплатно

    Дата: 30-10-2019, 05:00 | .torrent скачали: 5

    В стране невыученных уроков (1969) HDTVRip [H.264 / 720p-LQ]Производство: СССР/Союзмультфильм
    Жанр: мультфильм, короткометражка, семейный
    Режиссер: Юрий Прытков

    Описание

    Сказка о скверном ученике. Маленький лодырь попадает в фантастическую страну, где сталкивается с причудливыми образами собственных невыученных уроков. На пути ему попадаются Полтора Землекопа из неверно решенной арифметической задачи и всевозможные нелепицы, порожденные его же собственными ошибками.

    Возраст: 6+ (зрителям, достигшим 6 лет)
    Продолжительность: 00: 19: 10
    Качество видео: HDTVRip
    Субтитры: русские
    Видео: AVC/H.264, 960x720, ~4626 kbps
    Аудио: AC3, 6 ch, 448 kbps
    Общее
    Уникальный идентификатор : 224664630975000715742916347789877527697 (0xA904D58297E501DAA6DAA032C7154491)
    Полное имя : D: MULTВ Стране Невыученных Уроков.720p.mkv
    Формат : Matroska
    Версия формата : Version 4
    Размер файла : 696 Мбайт
    Продолжительность : 19 м. 10 с.
    Режим общего битрейта : Переменный
    Общий поток : 5076 Кбит/сек
    Название фильма : In The Land of Unprepared Homework 720p (1969) © SDIncorporation
    Дата кодирования : UTC 2015-12-16 22: 02: 10
    Программа кодирования : mkvmerge v8.6.1 (\'Flying\') 64bit
    Библиотека кодирования : libebml v1.3.3 + libmatroska v1.4.4
    Видео
    Идентификатор : 1
    Формат : AVC
    Формат/Информация : Advanced Video Codec
    Профиль формата : Main@L3.1
    Настройки формата : CABAC/3 Ref Frames
    Параметр CABAC формата : Да
    Параметр RefFrames формата : 3 кадра
    Идентификатор кодека : V_MPEG4/ISO/AVC
    Продолжительность : 19 м. 10 с.
    Вид битрейта : Переменный
    Битрейт : 4626 Кбит/сек
    Максимальный битрейт : 16, 0 Мбит/сек
    Ширина : 960 пикселей
    Высота : 720 пикселей
    Соотношение сторон : 4: 3
    Соотношение сторон в оригинале : 16: 9
    Режим частоты кадров : Постоянный
    Частота кадров : 25, 000 кадров/сек
    Стандарт вещания : NTSC
    Цветовое пространство : YUV
    Субдискретизация насыщенности : 4: 2: 0
    Битовая глубина : 8 бит
    Тип развёртки : Прогрессивная
    Бит/(Пиксели*Кадры) : 0.268
    Размер потока : 634 Мбайт (91%)
    Заголовок : Video
    Default : Да
    Forced : Нет
    Цветовой диапазон : Limited
    Аудио
    Идентификатор : 2
    Формат : AC-3
    Формат/Информация : Audio Coding 3
    Коммерческое название : Dolby Digital
    Идентификатор кодека : A_AC3
    Продолжительность : 19 м. 10 с.
    Вид битрейта : Постоянный
    Битрейт : 448 Кбит/сек
    Каналы : 6 каналов
    ChannelLayout : L R C LFE Ls Rs
    Частота : 48, 0 КГц
    Частота кадров : 31, 250 кадров/сек (1536 SPF)
    Метод сжатия : С потерями
    Размер потока : 61, 4 Мбайт (9%)
    Заголовок : Russian
    Язык : Russian
    ServiceKind/String : Complete Main
    Default : Да
    Forced : Нет
    Текст
    Идентификатор : 3
    Формат : UTF-8
    Идентификатор кодека : S_TEXT/UTF8
    Идентификатор кодека/Информация : UTF-8 Plain Text
    Продолжительность : 19 м. 3 с.
    Битрейт : 97 бит/сек
    ElementCount : 255
    Размер потока : 13, 6 Кбайт (0%)
    Заголовок : Russian Subtitles
    Язык : Russian
    Default : Да
    Forced : Нет

    Скриншоты для ознакомления



    Все одноименные релизы в Клубе
    Время раздачи: c 5 до 19 по мск (до появления первых 3-5 скачавших)

    Онлайн видео В стране невыученных уроков (1969) HDTVRip [H.264



    В стране невыученных уроков (1969) HDTVRip [H.264/720p-LQ]
    Рейтинг →
     (голосов: 1, оценка 4/5, голосовать можно 1 раз )

    Другие торренты по теме:

  • Лия Гераскина | В стране невыученных уроков (1988) [PDF, DJVU]
  • В стране невыученных уроков (1969) WEB-DLRip [H.264]


    • Комментарии (0):

      Информация

      Информация

        Посетители, находящиеся в группе Гости, не могут оставлять комментарии в данной новости.

        ↓ Меню




        ↓ Опрос

        Вы добавили сайт в закладки?
        Да
        Нет


        Популярное

        Футурама / Futurama (1999-2013) DVDRip (7 Сезонов, 140 серии) скачать через торрент бесплатно

        (скачиваний: 70)
        Малышарики (2015-2019) WEB-DL [H.264 / 1080p-LQ] (серии 1-154 из 208) [Обновляемая]

        (скачиваний: 57)
        Жила-была царевна (2015-2019) WEB-DLRip [H.264 / 720p-LQ] (сезон 1, серии 1-18 из 26) [Обновляемая]

        (скачиваний: 34)
        Металионы / Metalions (2018-2019) WEB-DLRip [H.264 / 720p-LQ] (сезон 1, серии 1-52 из 52) [Обновляемая]

        (скачиваний: 32)
        В гостях у сказки (сборник 56 фильмов) (1939-2009) DVDRip

        (скачиваний: 26)
        Три кота (2018) WEB-DLRip [H.264 / 720p-LQ] (сезон 3, серии 105-106 из 156)

        (скачиваний: 25)
        Спокойной ночи, малыши! (2009, 2015) SATRip, TVRip (83 выпусков)

        (скачиваний: 19)
        Рик и Морти / Rick and Morty (2013) BDRip [H.264 / 1080p] (Сезон 1, серии 1-11 из 11) Сыендук [EN Sub] скачать через торрент бесплатно

        (скачиваний: 18)
        Роботы-поезда / Robot Trains (2017) WEB-DL [H.264 / 720p-LQ] (1 сезон, 32 серий из 32)

        (скачиваний: 13)
        Fate / stay night Movie: Heavens Feel - II. Lost Butterfly / Судьба: Ночь схватки. Прикосновение Небес - II. Потерявшаяся бабочка [2019, MV] BDRip 1080p Rus

        (скачиваний: 12)