.
Авторизация | Регистрация
bitok.xyz
» » Симпсоны / The Simpsons (2019) WEB-DL [H.264 / 720p-LQ] (сезон 31, серии 1-4 из 23) [MVO] (Обновляемая) торрент скачать бесплатно


    Симпсоны / The Simpsons (2019) WEB-DL [H.264 / 720p-LQ] (сезон 31, серии 1-4 из 23) [MVO] (Обновляемая) торрент скачать бесплатно

    Дата: 31-10-2019, 05:00 | .torrent скачали: 0

    Симпсоны / The Simpsons (2019) WEB-DL [H.264 / 720p-LQ] (сезон 31, серии 1-4 из 23) [MVO] (Обновляемая)Производство: США
    Жанр: Мультсериал, Для взрослых, Комедия, Приключения
    Режиссер: Мэтт Гроунинг

    Описание

    Симпсоны живут в вымышленном городе Спрингфилд, со своим обществом и историей. Гомер - отец семейства, который дает плохие советы и работает инспектором безопасности на атомной электростанции; Мардж - любящая мать и жена, старается сохранить спокойствие в семье; Барт - 10 летний хулиган; Лиза - философский 8-летний ребенок; и Мэгги - младенец, который общается посредством соски.

    Возраст: 16+ (зрителям, достигшим 16 лет)
    Релиз от: VO-Production
    Продолжительность: ~ 00: 22: 00 х серия
    Качество видео: WEB-DL
    Перевод: Многоголосый профессиональный, любительский (VO-Production)
    Субтитры: нет
    Видео: AVC/H.264, 1280x720, ~3500 kbps
    Аудио: AC3, 2 ch, 256 kbps
    Внимание! Раздача ведётся путём добавления новых серий; при каждом добавлении создаётся новый торрент.
    Чтобы начать докачку новой серии, пользователям необходимо сделать следующее:
    1. Остановить скачивание;
    2. Удалить старый торрент у себя из клиента (старые серии удалять не надо);
    3. Скачать новый торрент и запустить его у себя в клиенте вместо старого, при этом указать клиенту путь в старую папку куда и должно происходить скачивание новых серий. Ваш клиент при этом должен произвести хеширование (проверку) старой папки и будет докачивать только те серии, которых у вас ещё нет. Старые серии при этом не удаляются, а продолжают раздаваться! Eсли вы уже удалили старые серии, то предотвратить повторную закачку старых серий можно, отжав галочку в соответствующих местах при запуске нового торрента.

    Общее
    Уникальный идентификатор : 233168028328905725129943384119575665928 (0xAF6A875E5695F2939435109903915D08)
    Полное имя : E: СериалыThe Simpsons.S31.VO-productionThe_Simpsons_3103_WEB-DL_720p_VO-production.mkv
    Формат : Matroska
    Версия формата : Version 1
    Размер файла : 584 Мбайт
    Продолжительность : 22 м.
    Общий поток : 3679 Кбит/сек
    Дата кодирования : UTC 2019-10-23 16: 23: 40
    Программа кодирования : mkvmerge v2.4.2 (\'Oh My God\') built on Jan 18 2009 17: 30: 28
    Библиотека кодирования : libebml v0.7.7 + libmatroska v0.8.1
    Видео
    Идентификатор : 1
    Формат : AVC
    Формат/Информация : Advanced Video Codec
    Профиль формата : High@L4.1
    Параметр CABAC формата : Да
    Параметр ReFrames формата : 3 кадра
    Идентификатор кодека : V_MPEG4/ISO/AVC
    Продолжительность : 22 м.
    Битрейт : 3500 Кбит/сек
    Ширина : 1280 пикселей
    Высота : 720 пикселей
    Соотношение сторон : 16: 9
    Частота кадров : 23, 976 кадра/сек
    Цветовое пространство : YUV
    Субдискретизация насыщенности : 4: 2: 0
    Битовая глубина : 8 бит
    Тип развёртки : Прогрессивная
    Бит/(Пиксели*Кадры) : 0.158
    Размер потока : 531 Мбайт (91%)
    Библиотека кодирования : x264 core 64 r971kMod ead8857
    Настройки программы : cabac=1/ref=3/deblock=1: 0: 0/analyse=0x3: 0x133/me=umh/subme=6/psy_rd=1.0: 0.0/brdo=1/mixed_ref=1/me_range=16/chroma_me=1/trellis=1/8x8dct=1/cqm=0/deadzone=21, 11/chroma_qp_offset=-2/threads=4/nr=0/decimate=1/mbaff=0/bframes=3/b_pyramid=1/b_adapt=1/b_bias=0/direct=3/wpredb=1/bime=1/keyint=250/keyint_min=25/scenecut=40(pre)/rc=2pass/bitrate=3500/ratetol=1.0/qcomp=0.60/qpmin=10/qpmax=51/qpstep=4/cplxblur=20.0/qblur=0.5/ip_ratio=1.40/pb_ratio=1.30/aq=1: 1.00
    Default : Да
    Forced : Нет
    Аудио
    Идентификатор : 2
    Формат : AC-3
    Формат/Информация : Audio Coding 3
    Расширение режима : CM (complete main)
    Параметр Endianness формата : Big
    Идентификатор кодека : A_AC3
    Продолжительность : 22 м.
    Вид битрейта : Постоянный
    Битрейт : 256 Кбит/сек
    Каналы : 2 канала
    Расположение каналов : Front: L R
    Частота : 48, 0 КГц
    Битовая глубина : 16 бит
    Метод сжатия : С потерями
    Размер потока : 40, 6 Мбайт (7%)
    Default : Да
    Forced : Нет

    Скриншоты для ознакомления


    Все одноименные релизы в Клубе
    Время раздачи: (до появления первых 3-5 скачавших)

    Онлайн видео Симпсоны



    Симпсоны/The Simpsons (2019) WEB-DL [H.264/720p-LQ] (сезон 31, серии 1-4 из 23) [MVO] (Обновляемая)
    Рейтинг →
     (голосов: 1, оценка 5/5, голосовать можно 1 раз )

    Другие торренты по теме:

  • Симпсоны / The Simpsons (2014-2015) WEB-DLRip (Сезон 26, Серии 1-14 из 16) [VO-production] (Обновляемая) скачать через торрент бесплатно
  • Симпсоны / The Simpsons (2014) WEB-DL [H.264 / 720p-LQ] (сезон 26, серии 1-14 из 22) [OmskBird] (обновляемая) скачать через торрент бесплатно
  • Discovery: Разрушители легенд. Спецвыпуск Симпсоны / MythBusters. The Simpsons Special (2015) WEB-DL [H.264 / 720p-LQ] (Сезон 15, эпизод 01) Jetvis Studio скачать через торрент бесплатно
  • Discovery: Разрушители легенд. Спецвыпуск Симпсоны / MythBusters. The Simpsons Special (2015) WEB-DLRip (Сезон 15, эпизод 01) Jetvis Studio скачать через торрент бесплатно
  • Симпсоны / The Simpsons (2015) WEB-DL (27 сезон, 1 серия) [JetvisStudio] скачать через торрент бесплатно
  • Discovery: Разрушители легенд. Спецвыпуск Симпсоны / MythBusters. The Simpsons Special (2015) SATRip (Сезон 15, эпизод 01) [Discovery] скачать через торрент бесплатно
  • Симпсоны / The Simpsons (2015) WEB-DL [H.264 / 720p] (27 сезон, 1 серия из 22) [VO-Production] (Обновляемая) скачать через торрент бесплатно
  • Симпсоны / The Simpsons (2015) WEB-DLRip (сезон 27, серия 01 из 22) VO-production скачать через торрент бесплатно


    • Комментарии (0):

      Информация

      Информация

        Посетители, находящиеся в группе Гости, не могут оставлять комментарии в данной новости.

        ↓ Меню




        ↓ Опрос

        Вы добавили сайт в закладки?
        Да
        Нет


        Популярное