.
Авторизация | Регистрация
bitok.xyz
» » Весёлая ферма / KuToppen (2018) WEB-DL [H.264 / 1080p-LQ] торрент скачать бесплатно


    Весёлая ферма / KuToppen (2018) WEB-DL [H.264 / 1080p-LQ] торрент скачать бесплатно

    Дата: 1-11-2019, 05:00 | .torrent скачали: 0

    Весёлая ферма / KuToppen (2018) WEB-DL [H.264 / 1080p-LQ]Производство: Норвегия/Qvisten Animation
    Жанр: Мультфильм, приключения, семейный
    Режиссер: Лизе И. Осволл

    Актеры
    Марит Андреассен, Ода Осволл Аватсмарк, Матс Элдоэн, Хенриетта Фэй-Шолль, Шарлотта Фрогнер, Стиг Дж. Хаген, Ян Мартин Йонсен, Сольвейг Клоппен, Ариф Салум, Фритьоф Сохэйм

    Описание

    Корова по имени Клара живет в городе и мечтает стать большой звездой. На летние каникулы она приезжает погостить к родителям на ферму. Там она решает прославить ферму став лучшим кулинаром. Вместе с друзьями, местными жителями: бычком — рэпером Гутом, курицей Чикколиной и другими она приступает к работе, хотя кое-кто, в этом, ей хочет помешать.

    Продолжительность: 01: 06: 21
    Качество видео: WEB-DL
    Перевод: Дублированный (iTunes)
    Субтитры: Отсутствуют
    Видео: AVC/H.264, 1920x1038, ~5120 Kbps
    Аудио: AC3, 6 ch, 384 Kbps
    Общее
    Уникальный идентификатор : 222821970367977203519781912566817115284 (0xA7A1F353F637F6EF87376A32A4284C94)
    Полное имя : D: NNMВесёлая фермаKuToppen.2018.WEB-DL.1080p-LQ.mkv
    Формат : Matroska
    Версия формата : Version 4
    Размер файла : 2, 54 Гбайт
    Продолжительность : 1 ч. 6 м.
    Общий поток : 5487 Кбит/сек
    Дата кодирования : UTC 2019-10-12 20: 19: 33
    Программа кодирования : mkvmerge v8.3.0 (\'Over the Horizon\') 64bit
    Библиотека кодирования : libebml v1.3.1 + libmatroska v1.4.2
    Видео
    Идентификатор : 1
    Формат : AVC
    Формат/Информация : Advanced Video Codec
    Профиль формата : High@L4
    Настройки формата : CABAC/4 Ref Frames
    Параметр CABAC формата : Да
    Параметр RefFrames формата : 4 кадра
    Идентификатор кодека : V_MPEG4/ISO/AVC
    Продолжительность : 1 ч. 6 м.
    Битрейт : 5120 Кбит/сек
    Ширина : 1920 пикселей
    Высота : 1038 пикселей
    Соотношение сторон : 1, 85: 1
    Режим частоты кадров : Постоянный
    Частота кадров : 24, 000 кадра/сек
    Цветовое пространство : YUV
    Субдискретизация насыщенности : 4: 2: 0
    Битовая глубина : 8 бит
    Тип развёртки : Прогрессивная
    Бит/(Пиксели*Кадры) : 0.107
    Размер потока : 2, 36 Гбайт (93%)
    Язык : English
    Default : Да
    Forced : Нет
    Аудио
    Идентификатор : 2
    Формат : AC-3
    Формат/Информация : Audio Coding 3
    Коммерческое название : Dolby Digital
    Идентификатор кодека : A_AC3
    Продолжительность : 1 ч. 6 м.
    Вид битрейта : Постоянный
    Битрейт : 384 Кбит/сек
    Каналы : 6 каналов
    ChannelLayout : L R C LFE Ls Rs
    Частота : 48, 0 КГц
    Частота кадров : 31, 250 кадров/сек (1536 SPF)
    Битовая глубина : 16 бит
    Метод сжатия : С потерями
    Размер потока : 182 Мбайт (7%)
    Заголовок : iTunes
    Язык : Russian
    ServiceKind/String : Complete Main
    Default : Да
    Forced : Нет

    Скриншоты для ознакомления



    Все одноименные релизы в Клубе Время раздачи: 24/7 (до появления первых 3-5 скачавших)

    Онлайн видео Весёлая ферма



    Весёлая ферма/KuToppen (2018) WEB-DL [H.264/1080p-LQ]
    Рейтинг →
     (голосов: 1, оценка 3/5, голосовать можно 1 раз )

    Другие торренты по теме:

  • Lets Explore The Farm / Весёлая ферма (1995) [3-8] [Ru / En] Repack
  • Весёлая ферма / KuToppen (2018) WEB-DLRip


    • Комментарии (0):

      Информация

      Информация

        Посетители, находящиеся в группе Гости, не могут оставлять комментарии в данной новости.

        ↓ Меню




        ↓ Опрос

        Вы добавили сайт в закладки?
        Да
        Нет


        Популярное