.
Авторизация | Регистрация
bitok.xyz
» » Весёлая ферма / KuToppen (2018) WEB-DLRip торрент скачать бесплатно


    Весёлая ферма / KuToppen (2018) WEB-DLRip торрент скачать бесплатно

    Дата: 1-11-2019, 05:00 | .torrent скачали: 0

    Весёлая ферма / KuToppen (2018) WEB-DLRipПроизводство: Норвегия/Qvisten Animation
    Жанр: Мультфильм, приключения, семейный
    Режиссер: Лизе И. Осволл

    Актеры
    Марит Андреассен, Ода Осволл Аватсмарк, Матс Элдоэн, Хенриетта Фэй-Шолль, Шарлотта Фрогнер, Стиг Дж. Хаген, Ян Мартин Йонсен, Сольвейг Клоппен, Ариф Салум, Фритьоф Сохэйм

    Описание

    Корова по имени Клара живет в городе и мечтает стать большой звездой. На летние каникулы она приезжает погостить к родителям на ферму. Там она решает прославить ферму став лучшим кулинаром. Вместе с друзьями, местными жителями: бычком — рэпером Гутом, курицей Чикколиной и другими она приступает к работе, хотя кое-кто, в этом, ей хочет помешать.

    Продолжительность: 01: 06: 21
    Качество видео: WEB-DLRip
    Перевод: Дублированный (iTunes)
    Субтитры: Отсутствуют
    Видео: XviD, 720x384, ~1946 Kbps
    Аудио: AC-3, 6 ch, 384 Kbps
    Общее
    Полное имя : D: NNMВесёлая фермаKuToppen.2018.WEB-DLRip.avi
    Формат : AVI
    Формат/Информация : Audio Video Interleave
    Размер файла : 1, 08 Гбайт
    Продолжительность : 1 ч. 6 м.
    Общий поток : 2339 Кбит/сек
    Название фильма : Весёлая ферма_2018_WEB-DLRip
    Программа кодирования : VirtualDubMod 1.5.10.3 |www.virtualdub-fr.org|| (build 2550/release)
    Авторское право : порошков
    Видео
    Идентификатор : 0
    Формат : MPEG-4 Visual
    Профиль формата : Advanced Simple@L5
    Настройки формата : BVOP1/Custom Matrix
    Параметр BVOP формата : 1
    Параметр QPel формата : Нет
    Параметр GMC формата : Без точки перехода
    Параметр матрицы формата : Выборочная
    Идентификатор кодека : XVID
    Идентификатор кодека/Подсказка : XviD
    Продолжительность : 1 ч. 6 м.
    Битрейт : 1946 Кбит/сек
    Ширина : 720 пикселей
    Высота : 384 пикселя
    Соотношение сторон : 1, 85: 1
    Частота кадров : 24, 000 кадра/сек
    Цветовое пространство : YUV
    Субдискретизация насыщенности : 4: 2: 0
    Битовая глубина : 8 бит
    Тип развёртки : Прогрессивная
    Метод сжатия : С потерями
    Бит/(Пиксели*Кадры) : 0.293
    Размер потока : 923 Мбайт (83%)
    Библиотека кодирования : XviD 73
    Аудио
    Идентификатор : 1
    Формат : AC-3
    Формат/Информация : Audio Coding 3
    Коммерческое название : Dolby Digital
    Идентификатор кодека : 2000
    Продолжительность : 1 ч. 6 м.
    Вид битрейта : Постоянный
    Битрейт : 384 Кбит/сек
    Каналы : 6 каналов
    ChannelLayout : L R C LFE Ls Rs
    Частота : 48, 0 КГц
    Частота кадров : 31, 250 кадров/сек (1536 SPF)
    Битовая глубина : 16 бит
    Метод сжатия : С потерями
    Размер потока : 182 Мбайт (16%)
    Выравнивание : Разделение по промежуткам
    Продолжительность промежутка : 42 мс. (1, 00 видеокадр)
    Время предзагрузки промежутка : 500 мс.
    ServiceKind/String : Complete Main

    Скриншоты для ознакомления



    Все одноименные релизы в Клубе Время раздачи: 24/7 (до появления первых 3-5 скачавших)

    Онлайн видео Весёлая ферма



    Весёлая ферма/KuToppen (2018) WEB-DLRip
    Рейтинг →
     (голосов: 1, оценка 4/5, голосовать можно 1 раз )

    Другие торренты по теме:

  • Lets Explore The Farm / Весёлая ферма (1995) [3-8] [Ru / En] Repack
  • Весёлая ферма / KuToppen (2018) WEB-DL [H.264 / 1080p-LQ]


    • Комментарии (0):

      Информация

      Информация

        Посетители, находящиеся в группе Гости, не могут оставлять комментарии в данной новости.

        ↓ Меню




        ↓ Опрос

        Вы добавили сайт в закладки?
        Да
        Нет


        Популярное