.
Авторизация | Регистрация
bitok.xyz
» » Мой друг Робот / Robbi, Tobbi und das Fliewatuut (2016) WEB-DLRip торрент скачать бесплатно


    Мой друг Робот / Robbi, Tobbi und das Fliewatuut (2016) WEB-DLRip торрент скачать бесплатно

    Дата: 1-11-2019, 05:00 | .torrent скачали: 1

    Мой друг Робот / Robbi, Tobbi und das Fliewatuut (2016) WEB-DLRipПроизводство: Германия, Бельгия/Fortis Film Fund, StudioCanal, Wüste Film West GmbH
    Жанр: Фантастика, драма, комедия, приключения, семейный
    Режиссер: Вольфганг Гроос

    Актеры
    Арсений Бультман, Александра Мария Лара, Сэм Райли, Фридрих Мюке, Бьярне Медел, Ральф Касперс, Йордис Трибель, Мелина Мардини, Оливер Кляйнфельд, Киран Уэст

    Описание

    Мальчик Тобби встречает робота Робби и решает помочь ему найти родителей, которых тот потерял при крушении звездолета. Тобби всего 11 лет, но он уже очень хорошо знаком с наукой. Юный талантливый изобретатель и его новый друг робот создают автомобиль, который способен летать и плавать, и отправляются навстречу приключениям. Их преследуют секретные агенты технологической корпорации, желающие заполучить загадочного робота и разобрать его.

    Возраст: 6+ (зрителям, достигшим 6 лет)
    Продолжительность: 01: 45: 04
    Качество видео: WEB-DLRip
    Перевод: Дублированный
    Субтитры: Отсутствуют
    Видео: XviD, 720x384, ~1596 Kbps
    Аудио: AC-3, 6 ch, 384 Kbps
    Общее
    Полное имя : D: NNMМой друг РоботRobbi.Tobbi.2016.WEB-DLRip.avi
    Формат : AVI
    Формат/Информация : Audio Video Interleave
    Размер файла : 1, 46 Гбайт
    Продолжительность : 1 ч. 45 м.
    Общий поток : 1989 Кбит/сек
    Название фильма : Мой друг Робот_2016_WEB-DLRip
    Программа кодирования : VirtualDubMod 1.5.10.3 |www.virtualdub-fr.org|| (build 2550/release)
    Авторское право : порошков
    Видео
    Идентификатор : 0
    Формат : MPEG-4 Visual
    Профиль формата : Advanced Simple@L5
    Настройки формата : BVOP1/Custom Matrix
    Параметр BVOP формата : 1
    Параметр QPel формата : Нет
    Параметр GMC формата : Без точки перехода
    Параметр матрицы формата : Выборочная
    Идентификатор кодека : XVID
    Идентификатор кодека/Подсказка : XviD
    Продолжительность : 1 ч. 45 м.
    Битрейт : 1596 Кбит/сек
    Ширина : 720 пикселей
    Высота : 384 пикселя
    Соотношение сторон : 1, 85: 1
    Частота кадров : 24, 000 кадра/сек
    Цветовое пространство : YUV
    Субдискретизация насыщенности : 4: 2: 0
    Битовая глубина : 8 бит
    Тип развёртки : Прогрессивная
    Метод сжатия : С потерями
    Бит/(Пиксели*Кадры) : 0.240
    Размер потока : 1, 17 Гбайт (80%)
    Библиотека кодирования : XviD 73
    Аудио
    Идентификатор : 1
    Формат : AC-3
    Формат/Информация : Audio Coding 3
    Коммерческое название : Dolby Digital
    Идентификатор кодека : 2000
    Продолжительность : 1 ч. 45 м.
    Вид битрейта : Постоянный
    Битрейт : 384 Кбит/сек
    Каналы : 6 каналов
    ChannelLayout : L R C LFE Ls Rs
    Частота : 48, 0 КГц
    Частота кадров : 31, 250 кадров/сек (1536 SPF)
    Битовая глубина : 16 бит
    Метод сжатия : С потерями
    Размер потока : 289 Мбайт (19%)
    Выравнивание : Разделение по промежуткам
    Продолжительность промежутка : 42 мс. (1, 00 видеокадр)
    Время предзагрузки промежутка : 500 мс.
    ServiceKind/String : Complete Main

    Скриншоты для ознакомления



    Все одноименные релизы в Клубе Время раздачи: 24/7 (до появления первых 3-5 скачавших)

    Онлайн видео Мой друг Робот



    Мой друг Робот/Robbi, Tobbi und das Fliewatuut (2016) WEB-DLRip
    Рейтинг →
     (голосов: 1, оценка 5/5, голосовать можно 1 раз )

    Другие торренты по теме:

  • Мой друг Робот / Robbi, Tobbi und das Fliewatuut (2016) WEBRip [H.264 / 1080p-LQ]


    • Комментарии (0):

      Информация

      Информация

        Посетители, находящиеся в группе Гости, не могут оставлять комментарии в данной новости.

        ↓ Меню




        ↓ Опрос

        Вы добавили сайт в закладки?
        Да
        Нет


        Популярное

        Малышарики (2015-2019) WEB-DL [H.264 / 1080p-LQ] (серии 1-154 из 208) [Обновляемая]

        (скачиваний: 106)
        Футурама / Futurama (1999-2013) DVDRip (7 Сезонов, 140 серии) скачать через торрент бесплатно

        (скачиваний: 102)
        Рик и Морти / Rick and Morty (2015) WEB-DL [H.264 / 1080p] (Сезон 2, серии 1-10 из 10) Сыендук [EN / RU Sub] скачать через торрент бесплатно

        (скачиваний: 65)
        Жила-была царевна (2015-2019) WEB-DLRip [H.264 / 720p-LQ] (сезон 1, серии 1-18 из 26) [Обновляемая]

        (скачиваний: 62)
        Металионы / Metalions (2018-2019) WEB-DLRip [H.264 / 720p-LQ] (сезон 1, серии 1-52 из 52) [Обновляемая]

        (скачиваний: 47)
        Рик и Морти / Rick and Morty (2013) BDRip [H.264 / 720p-LQ] (сезон 1, серии 1-11 из 11) Сыендук

        (скачиваний: 42)
        В гостях у сказки (сборник 56 фильмов) (1939-2009) DVDRip

        (скачиваний: 42)
        Рик и Морти / Rick and Morty (2013) BDRip [H.264 / 1080p] (Сезон 1, серии 1-11 из 11) Сыендук [EN Sub] скачать через торрент бесплатно

        (скачиваний: 41)
        Три кота (2018) WEB-DLRip [H.264 / 720p-LQ] (сезон 3, серии 105-106 из 156)

        (скачиваний: 38)
        Королевская академия / Regal Academy (2016) SATRip [H.264] (Сезон 1, 26 серий из 26) [UKR]

        (скачиваний: 25)