.
Авторизация | Регистрация
bitok.xyz
» » Onii-sama e | Dear Brother | Уважаемый старший брат [1992, TV, 39 эп.] DVDRip 540p raw торрент скачать бесплатно


    Onii-sama e | Dear Brother | Уважаемый старший брат [1992, TV, 39 эп.] DVDRip 540p raw торрент скачать бесплатно

    Дата: 2-11-2019, 11:36 | .torrent скачали: 1

    Onii-sama e | Dear Brother | Уважаемый старший брат [1992, TV, 39 эп.] DVDRip 540p rawЖанр: драма, сёдзё, юри
    Тип: TV-сериал
    Количество серий: 39 из 39
    Продолжительность: ТВ, 39 серий по 26 мин.
    Период выхода: c 14.07.1991 по 31.05.1992
    Производство/студия: TMS
    Автор оригинала: Икэда Риёко
    Режиссер: Дэдзаки Осаму
    Ссылки: World-Art, ANN, AniDB, MyAnimeList

    Описание

    Юная Нанако Мисато поступает в престижную школу для девочек Сэйран. Она очень горда своей первой житейской победой и от души рада тому, что вместе с ней будет учиться ее ближайшая подруга Томоко Арикура. Обо всех новостях своей жизни Нанако исправно пишет названному брату – учителю начальной школы, аккуратно адресуя хронику своих удач и поражений Уважаемому старшему брату...
    World-art.ru
    Качество видео: DVDRip
    Видео: H264, 720x544, 1500 Kbps
    Аудио: AC3 48000Hz stereo, 192 Kbps
    Звук: Две дорожки: японская и русская
    Субтитры: Русские (подключаемые)

    Скриншоты:

    01. The Magnificent Ones
    02. The Glass Slippers
    03. Nanako is Disqualified
    04. The Music Box
    05. Thorns of Suspicion and Doubt
    06. Lost and Alone
    07. The Darkness in the Clock Tower
    08. I Want You
    09. Relapse!
    10. Mariko
    11. Under the Elm Tree
    12. The Scar
    13. A Tale of Double Suicide
    14. The Secret Door
    15. Fukiko; The Sea Rumbles
    16. Comeback
    17. Post Scriptum
    18. Into the Dream...
    19. The Utakata Game
    20. The Gardening Shears
    21. The University Fair
    22. A Summer’s Serenade
    23. The Forbidden Gift
    24. Encore
    25. The Scarlet Lipstick
    26. The Promise in the Snow
    27. An Incident of Bloodshed
    28. The Christmas Candles
    29. The Assembly
    30. The Petition
    31. The Bad Apple
    32. Pride, and the Final Meeting
    33. Fly High
    34. Ablution
    35. The Beach of Dreams
    36. Glowing Fireflies, Blazing Passion
    37. Carousel
    38. Yes
    39. A Lingering Fragrance
    General
    Unique ID : 220585013111336824875170414230493754632 (0xA5F320D1F06D3C60B82F9E93D70C7508)
    Complete name : Brother, .Dear.Brother-01-The.Magnificent.Ones.NAG.rus.mkv
    Format : Matroska
    Format version : Version 1
    File size : 334 MiB
    Duration : 25 min 31 s
    Overall bit rate : 1 832 kb/s
    Encoded date : UTC 2007-08-06 14: 49: 59
    Writing application : mkvmerge v1.7.0 (\'What Do You Take Me For\') built on Apr 28 2006 17: 20: 19
    Writing library : libebml v0.7.7 + libmatroska v0.8.0
    Video
    ID : 1
    Format : AVC
    Format/Info : Advanced Video Codec
    Format profile : High@L5.1
    Format settings, CABAC : Yes
    Format settings, ReFrames : 16 frames
    Codec ID : V_MPEG4/ISO/AVC
    Duration : 25 min 31 s
    Bit rate : 1 450 kb/s
    Width : 720 pixels
    Height : 544 pixels
    Display aspect ratio : 4: 3
    Frame rate mode : Constant
    Frame rate : 23.976 (24000/1001) FPS
    Color space : YUV
    Chroma subsampling : 4: 2: 0
    Bit depth : 8 bits
    Scan type : Progressive
    Bits/(Pixel*Frame) : 0.154
    Stream size : 258 MiB (77%)
    Writing library : x264 core 55 svn-663
    Encoding settings : cabac=1/ref=16/deblock=0: 0: 0/analyse=0x3: 0x133/me=hex/subme=6/brdo=1/mixed_ref=1/me_range=16/chroma_me=1/trellis=0/8x8dct=1/cqm=0/deadzone=21, 11/chroma_qp_offset=0/threads=2/nr=0/decimate=1/mbaff=0/bframes=16/b_pyramid=1/b_adapt=1/b_bias=0/direct=1/wpredb=1/bime=0/keyint=50/keyint_min=25/scenecut=40(pre)/rc=2pass/bitrate=1450/ratetol=99.0/rceq=\'blurCplx^(1-qComp)\'/qcomp=0.60/qpmin=10/qpmax=51/qpstep=4/cplxblur=20.0/qblur=0.5/ip_ratio=1.40/pb_ratio=1.30
    Language : English
    Default : Yes
    Forced : No
    Audio #1
    ID : 2
    Format : AC-3
    Format/Info : Audio Coding 3
    Format settings, Endianness : Big
    Codec ID : A_AC3
    Duration : 25 min 31 s
    Bit rate mode : Constant
    Bit rate : 192 kb/s
    Channel(s) : 2 channels
    Channel positions : Front: L R
    Sampling rate : 48.0 kHz
    Frame rate : 31.250 FPS (1536 spf)
    Bit depth : 16 bits
    Compression mode : Lossy
    Stream size : 35.1 MiB (10%)
    Title : Russian
    Language : Russian
    Service kind : Complete Main
    Default : Yes
    Forced : No
    Audio #2
    ID : 3
    Format : AC-3
    Format/Info : Audio Coding 3
    Format settings, Endianness : Big
    Codec ID : A_AC3
    Duration : 25 min 31 s
    Bit rate mode : Constant
    Bit rate : 192 kb/s
    Channel(s) : 2 channels
    Channel positions : Front: L R
    Sampling rate : 48.0 kHz
    Frame rate : 31.250 FPS (1536 spf)
    Bit depth : 16 bits
    Compression mode : Lossy
    Stream size : 35.1 MiB (10%)
    Title : Japanese
    Language : Japanese
    Service kind : Complete Main
    Default : No
    Forced : No
    Text
    ID : 4
    Format : UTF-8
    Codec ID : S_TEXT/UTF8
    Codec ID/Info : UTF-8 Plain Text
    Title : Russian
    Language : Russian
    Default : Yes
    Forced : No


    Онлайн видео Onii-sama e



    Onii-sama e | Dear Brother | Уважаемый старший брат [1992, TV, 39 эп.] DVDRip 540p raw
    Рейтинг →
     (голосов: 1, оценка 3/5, голосовать можно 1 раз )

    Другие торренты по теме:

  • Onii-sama e... | Dear Brother | Уважаемый старший брат [ТВ] [1991, TV, 39] BDRip 1080p raw


    • Комментарии (0):

      Информация

      Информация

        Посетители, находящиеся в группе Гости, не могут оставлять комментарии в данной новости.

        ↓ Меню




        ↓ Опрос

        Вы добавили сайт в закладки?
        Да
        Нет


        Популярное