.
Авторизация | Регистрация
bitok.xyz
» » Crusher Joe | Крушила Джо [1983, Movie] BDRip 1080p raw+rus торрент скачать бесплатно


    Crusher Joe | Крушила Джо [1983, Movie] BDRip 1080p raw+rus торрент скачать бесплатно

    Дата: 3-11-2019, 05:00 | .torrent скачали: 0

    Crusher Joe | Крушила Джо [1983, Movie] BDRip 1080p raw+rusТип: Movie
    Жанр: приключения, фантастика
    Продолжительность: 132 мин.
    Дата выпуска: 12.03.1983
    Производство: Япония, Sunrise
    Автор оригинала: Такатихо Харука
    Режиссер: Ясухико Ёсикадзу
    Информационные ссылки: AniDB ||World Art ||MAL ||SHIKIMORI

    Описание

    Давным-давно, в далекой-далекой галактике... человечество вышло за пределы галактики и расселилось по другим планетам. Организация, называющая себя Крушители, согласна взяться за любую работу. Нет-нет, не подумайте, это не пираты или какие другие плохие ребята, они хорошие, это просто те, кто возьмется за такие задания, от которых уже отказались другие. И вот такой лихой команде предлагают сделку - срочно доставить на планету Миккола пациентку в анабиозе. Лидер команды Джо соглашается. Однако в космосе начинаются неприятности. Гиперпространственный прыжок срывается и они оказываются вообще в другой части галактики, за ними охотятся военные, приняв их за пиратов. И тут... груз исчезает...
    Язык озвучки: Японский и русский
    Перевод:
    русские субтитрыArdeur , редактура: Mats Graule-Lade (.ass)
    английские субтитры (.ass)
    Релиз/Энкод: Moozzi2
    Качество видео: BDRip
    Видео: AVC/H.264, 8-bit, 1440x1080 (4: 3), 23, 976 fps, 12, 9 Mbps
    Аудио JAP: DTS-HD, 48 kHz, ~ 3547 Kbps, 4 ch
    Аудио JAP: FLAC, 48 kHz, ~ 1385 Kbps, 2 ch
    Аудио RUS Многоголосая, студия3df_voice : FLAC, 48 kHz, ~ 897 Kbps, 2 ch


    Скриншоты для ознакомления




    На русский роли озвучивали: Глеб Янышев, Мария Яковлева, Никита Кузнецов, Евгения Андрианова, Александр Аносов, Альбина Штанина, Евгений Бородаенко, Анастасия Чукунова, Антон Падалко, Екатерина Филина, Павел Тимонин.
    Сведение и мастеринг: Александр Шмат.
    Продакшн: студия звукозаписи 3df_voice (г. Тула), 2019г.
    Всем интересующимся о новых и прошлых релизах студии, а также условиях её работы ссылка на страницу
    Желающим материально отблагодарить участников за проделанную работу, просьба проследовать по ссылке
    Общее
    Уникальный идентификатор : 237221696608555267730653320975488778351 (0xB2773CA531ED3BEE178DCFC4CB5A006F)
    Полное имя : Crusher Joe The Movie BDRip 1080p 3df_voice 8 bit Moozzi2.mkv
    Формат : Matroska
    Версия формата : Version 4
    Размер файла : 17, 3 Гбайт
    Продолжительность : 2 ч. 12 м.
    Режим общего битрейта : Переменный
    Общий поток : 18, 7 Мбит/сек
    Дата кодирования : UTC 2019-11-02 04: 26: 27
    Программа кодирования : mkvmerge v36.0.0 (\'Is That Jazz?\') 64-bit
    Библиотека кодирования : libebml v1.3.9 + libmatroska v1.5.2
    Attachments : GillSansMTPro-Medium.otf/GillSansMTPro-MediumItalic.otf/Crusher Joe The Movie BDRip 1080p 3df_voice 8 bit Moozzi2_chapters.xml
    Видео
    Идентификатор : 1
    Формат : AVC
    Формат/Информация : Advanced Video Codec
    Профиль формата : High@L4
    Настройки формата : CABAC/5 Ref Frames
    Параметр CABAC формата : Да
    Параметр RefFrames формата : 5 кадров
    Идентификатор кодека : V_MPEG4/ISO/AVC
    Продолжительность : 2 ч. 12 м.
    Битрейт : 12, 9 Мбит/сек
    Ширина : 1440 пикселей
    Высота : 1080 пикселей
    Соотношение сторон : 4: 3
    Режим частоты кадров : Постоянный
    Частота кадров : 23, 976 (24000/1001) кадра/сек
    Цветовое пространство : YUV
    Субдискретизация насыщенности : 4: 2: 0
    Битовая глубина : 8 бит
    Тип развёртки : Прогрессивная
    Бит/(Пиксели*Кадры) : 0.346
    Размер потока : 11, 9 Гбайт (69%)
    Заголовок : Moozzi2
    Библиотека кодирования : x264 core 155 r2901 7d0ff22
    Настройки программы : cabac=1/ref=5/deblock=1: 1: 1/analyse=0x3: 0x113/me=umh/subme=9/psy=1/psy_rd=1.00: 0.00/mixed_ref=1/me_range=32/chroma_me=1/trellis=1/8x8dct=1/cqm=0/deadzone=21, 11/fast_pskip=0/chroma_qp_offset=-2/threads=24/lookahead_threads=2/sliced_threads=0/nr=0/decimate=1/interlaced=0/bluray_compat=0/stitchable=1/constrained_intra=0/bframes=3/b_pyramid=2/b_adapt=2/b_bias=0/direct=1/weightb=1/open_gop=0/weightp=1/keyint=240/keyint_min=23/scenecut=40/intra_refresh=0/rc_lookahead=40/rc=crf/mbtree=1/crf=16.0/qcomp=0.60/qpmin=0/qpmax=69/qpstep=4/ip_ratio=1.40/aq=1: 1.00
    Default : Да
    Forced : Нет
    Аудио #1
    Идентификатор : 2
    Формат : FLAC
    Формат/Информация : Free Lossless Audio Codec
    Идентификатор кодека : A_FLAC
    Продолжительность : 2 ч. 12 м.
    Вид битрейта : Переменный
    Битрейт : 897 Кбит/сек
    Каналы : 2 канала
    ChannelLayout : L R
    Частота : 48, 0 КГц
    Частота кадров : 41, 667 кадра/сек (1152 SPF)
    Битовая глубина : 16 бит
    Метод сжатия : Без потерь
    Размер потока : 849 Мбайт (5%)
    Заголовок : 3df_voice
    Библиотека кодирования : libFLAC 1.3.0 (UTC 2013-05-26)
    Язык : Russian
    Default : Да
    Forced : Нет
    Аудио #2
    Идентификатор : 3
    Формат : FLAC
    Формат/Информация : Free Lossless Audio Codec
    Идентификатор кодека : A_FLAC
    Продолжительность : 2 ч. 12 м.
    Вид битрейта : Переменный
    Битрейт : 1385 Кбит/сек
    Каналы : 2 канала
    ChannelLayout : L R
    Частота : 48, 0 КГц
    Частота кадров : 11, 719 кадров/сек (4096 SPF)
    Битовая глубина : 24 бит
    Метод сжатия : Без потерь
    Размер потока : 1, 28 Гбайт (7%)
    Библиотека кодирования : libFLAC 1.2.1 (UTC 2007-09-17)
    Язык : Japanese
    Default : Нет
    Forced : Нет
    Аудио #3
    Идентификатор : 4
    Формат : DTS XLL
    Формат/Информация : Digital Theater Systems
    Коммерческое название : DTS-HD Master Audio
    Идентификатор кодека : A_DTS
    Продолжительность : 2 ч. 12 м.
    Вид битрейта : Переменный
    Битрейт : 3547 Кбит/сек
    Каналы : 4 канала
    ChannelLayout : C L R Cb
    Частота : 48, 0 КГц
    Частота кадров : 93, 750 кадра/сек (512 SPF)
    Битовая глубина : 24 бит
    Метод сжатия : Без потерь
    Размер потока : 3, 28 Гбайт (19%)
    Язык : Japanese
    Default : Нет
    Forced : Нет
    Текст #1
    Идентификатор : 5
    Формат : ASS
    Идентификатор кодека : S_TEXT/ASS
    Идентификатор кодека/Информация : Advanced Sub Station Alpha
    Продолжительность : 2 ч. 9 м.
    Битрейт : 134 бит/сек
    ElementCount : 1622
    Метод сжатия : Без потерь
    Размер потока : 127 Кбайт (0%)
    Заголовок : Ardeur Mats Graule-Lade
    Язык : Russian
    Default : Да
    Forced : Нет
    Текст #2
    Идентификатор : 6
    Формат : ASS
    Идентификатор кодека : S_TEXT/ASS
    Идентификатор кодека/Информация : Advanced Sub Station Alpha
    Продолжительность : 2 ч. 11 м.
    Битрейт : 94 бит/сек
    ElementCount : 1562
    Метод сжатия : Без потерь
    Размер потока : 91, 4 Кбайт (0%)
    Заголовок : R1 DVD Script
    Язык : English
    Default : Нет
    Forced : Нет
    Меню
    00: 00: 00.000 : en: 00: 00: 00.000
    00: 03: 40.345 : en: 00: 03: 40.345
    00: 06: 21.673 : en: 00: 06: 21.673
    00: 10: 22.914 : en: 00: 10: 22.914
    00: 24: 50.072 : en: 00: 24: 50.072
    00: 36: 19.052 : en: 00: 36: 19.052
    00: 40: 27.800 : en: 00: 40: 27.800
    00: 52: 44.953 : en: 00: 52: 44.953
    00: 57: 40.999 : en: 00: 57: 40.999
    01: 12: 42.024 : en: 01: 12: 42.024
    01: 15: 56.969 : en: 01: 15: 56.969
    01: 19: 31.016 : en: 01: 19: 31.016
    01: 26: 56.670 : en: 01: 26: 56.670
    01: 42: 28.142 : en: 01: 42: 28.142
    01: 46: 40.436 : en: 01: 46: 40.436
    01: 51: 38.358 : en: 01: 51: 38.358
    01: 58: 00.615 : en: 01: 58: 00.615
    02: 06: 37.799 : en: 02: 06: 37.799
    02: 09: 02.360 : en: 02: 09: 02.360
    Время раздачи: 24/7 (круглосуточно) (до появления первых 3-5 скачавших)

    Онлайн видео Crusher Joe



    Crusher Joe | Крушила Джо [1983, Movie] BDRip 1080p raw+rus
    Рейтинг →
     (голосов: 1, оценка 4/5, голосовать можно 1 раз )

    Другие торренты по теме:

  • Crusher Joe: The OVAs / Крушила Джо OVA 1 и 2 [1989, OVA, 2] BDRip 720p raw
  • Crusher Joe / Крушила Джо - Фильм [1983, Movie] BDRip 1080 HEVC raw
  • Crusher Joe | Крушила Джо [1983, Movie] BDRip 720p raw+rus


    • Комментарии (0):

      Информация

      Информация

        Посетители, находящиеся в группе Гости, не могут оставлять комментарии в данной новости.

        ↓ Меню




        ↓ Опрос

        Вы добавили сайт в закладки?
        Да
        Нет


        Популярное