.
Авторизация | Регистрация
bitok.xyz
» » Sewayaki Kitsune no Senko-san | The Helpful Fox Senko-san | Заботливая лисичка Сэнко-сан! [2019, TV, 12] HDTV 720p raw+rus торрент скачать бесплатно


    Sewayaki Kitsune no Senko-san | The Helpful Fox Senko-san | Заботливая лисичка Сэнко-сан! [2019, TV, 12] HDTV 720p raw+rus торрент скачать бесплатно

    Дата: 3-11-2019, 05:00 | .torrent скачали: 0

    Sewayaki Kitsune no Senko-san | The Helpful Fox Senko-san | Заботливая лисичка Сэнко-сан! [2019, TV, 12] HDTV 720p raw+rusТип: ТВ
    Жанр: комедия, романтика, повседневность
    Продолжительность: 12 эп. по 25 мин.
    Количество серий: 12
    Дата выпуска: c 10.04.2019 по 26.06.2019
    Производство: Япония, Dogakobo/動画工房
    Автор оригинала: Римукоро
    Режиссер: Косида Томоаки
    World-Art | AniDB | MAL

    Описание

    Каждый день славного парня Накано проходит по одному сценарию. У него практически никогда нет свободного времени. Вся его жизнь — это сплошная работа. Герой работает в огромной корпорации обычным клерком. Такая жизнь кажется ему скучной и однообразной. По возвращению домой на его плечи падают домашние заботы. Но молодой человек не перестает верить в настоящую любовь. Накано мечтает встретить личность, которая для него станет чем-то больше, чем обычная помощница. Но из-за работы у него нет времени просто выйти на улицу и прогуляться в парке. Юноша даже не подозревал какой его ждет волшебный сюрприз.В один восхитительный день, возвращаясь с офиса, юноша хотел немного отдохнуть и насладиться тишиной. Но в доме его ждала приятная гостья. Главный герой не мог поверить своим глазам. Ведь незнакомка оказалась 800-летней загадочной персоной. Девушку называют Кицунэ, что означает смесь лисицы и человека. Таинственная личность представилась как Сэнко-сан. Когда-то давно она задолжала дому, в котором живет парень. Теперь она пришла отдать долг, заботясь об уставшем работнике. Сэнко-сан прекрасно готовит, наводит чистоту в доме и практически всегда знает, чего хочет Накано. Впереди их ждут забавные и веселые приключения.
    Качество видео: HDTV
    Видео: H.264, 1280х720, 23.976 fps, ~3400 kbps
    Аудио 1: AAC, ~253 kbps, 48 kHz, 2 ch | Jap| Звук: Оригинал
    Аудио 2: AAC, ~192 kbps, 48 kHz, 2 ch | Rus| Звук: Silv, Cleo-chan, Malevich, Narea
    Субтитры 1: Полные, отключаемые (Вшитые) | Rus
    Субтитры 2: Надписи, отключаемые (Вшитые) | Rus

    Скриншоты для ознакомления



    Код: выделить все
    General
    Unique ID : 303943282110833649563832490390433478075 (0xE4A958CA96B913A0F8168E890642B5BB)
    Complete name : C:UsersNikoDocumentsdesudes[01] Sewayaki Kitsune no Senko-san [MVO].mkv
    Format : Matroska
    Format version : Version 4/Version 2
    File size : 669 MiB
    Duration : 23 min 45 s
    Overall bit rate : 3 936 kb/s
    Encoded date : UTC 2019-04-13 11:07:50
    Writing application : mkvmerge v25.0.0 (\'Prog Noir\') 64-bit
    Writing library : libebml v1.3.6 + libmatroska v1.4.9
    Attachments : 1979.ttf/3125511.ttf/5442772.ttf/8128831.ttf/brrc_.TTC/BrushType-SemiBold Regular.Ttf/Graffit0.ttf/gulim.ttc/LLRubberGrotesque.ttf/Neucha.ttf/Toledo_.ttf
    Video
    ID : 1
    Format : AVC
    Format/Info : Advanced Video Codec
    Format profile :Main@L3.1
    Format settings, CABAC : Yes
    Format settings, ReFrames : 4 frames
    Codec ID : V_MPEG4/ISO/AVC
    Duration : 23 min 44 s
    Bit rate : 3 500 kb/s
    Width : 1 280 pixels
    Height : 720 pixels
    Display aspect ratio : 16:9
    Frame rate mode : Constant
    Frame rate : 23.976 (24000/1001) FPS
    Color space : YUV
    Chroma subsampling : 4:2:0
    Bit depth : 8 bits
    Scan type : Progressive
    Bits/(Pixel*Frame) : 0.158
    Stream size : 575 MiB (86%)
    Title : [Erai-Raws]
    Writing library : x264 core 157 r2948 dada181
    Encoding settings : cabac=1/ref=1/deblock=1:0:0/analyse=0x1:0x111/me=hex/subme=7/psy=1/psy_rd=1.00:0.00/mixed_ref=0/me_range=16/chroma_me=1/trellis=1/8x8dct=0/cqm=0/deadzone=21, 11/fast_pskip=1/chroma_qp_offset=-2/threads=22/lookahead_threads=3/sliced_threads=0/nr=0/decimate=1/interlaced=0/bluray_compat=0/constrained_intra=0/bframes=2/b_pyramid=2/b_adapt=1/b_bias=0/direct=1/weightb=1/open_gop=0/weightp=2/keyint=48/keyint_min=4/scenecut=40/intra_refresh=0/rc_lookahead=40/rc=cbr/mbtree=1/bitrate=3500/ratetol=1.0/qcomp=0.60/qpmin=0/qpmax=69/qpstep=4/vbv_maxrate=3500/vbv_bufsize=10500/nal_hrd=none/filler=0/ip_ratio=1.40/aq=1:1.00
    Language : Japanese
    Default : Yes
    Forced : Yes
    Audio #1
    ID : 2
    Format : AAC
    Format/Info : Advanced Audio Codec
    Format profile : LC
    Codec ID : A_AAC
    Duration : 23 min 44 s
    Bit rate : 192 kb/s
    Channel(s) : 2 channels
    Channel positions : Front: L R
    Sampling rate : 48.0 kHz
    Frame rate : 46.875 FPS (1024 spf)
    Compression mode : Lossy
    Delay relative to video : -43 ms
    Stream size : 32.6 MiB (5%)
    Title : AniLibria.TV
    Language : Russian
    Default : Yes
    Forced : Yes
    Audio #2
    ID : 3
    Format : AAC
    Format/Info : Advanced Audio Codec
    Format profile : LC
    Codec ID : A_AAC
    Duration : 23 min 45 s
    Bit rate : 253 kb/s
    Channel(s) : 2 channels
    Channel positions : Front: L R
    Sampling rate : 48.0 kHz
    Frame rate : 46.875 FPS (1024 spf)
    Compression mode : Lossy
    Delay relative to video : -43 ms
    Stream size : 43.0 MiB (6%)
    Title : Original
    Language : Japanese
    Default : No
    Forced : No
    Text #1
    ID : 4
    Format : ASS
    Codec ID : S_TEXT/ASS
    Codec ID/Info : Advanced Sub Station Alpha
    Duration : 21 min 51 s
    Bit rate : 107 b/s
    Count of elements : 130
    Compression mode : Lossless
    Stream size : 17.3 KiB (0%)
    Title : Надписи
    Language : Russian
    Default : Yes
    Forced : Yes
    Text #2
    ID : 5
    Format : ASS
    Codec ID : S_TEXT/ASS
    Codec ID/Info : Advanced Sub Station Alpha
    Duration : 23 min 19 s
    Bit rate : 216 b/s
    Count of elements : 382
    Compression mode : Lossless
    Stream size : 37.0 KiB (0%)
    Title : Полные
    Language : Russian
    Default : No
    Forced : No

    Время раздачи: Все дни с13: 00 до06: 00 , кроме некоторых случаев.

    Онлайн видео Sewayaki Kitsune no Senko-san



    Sewayaki Kitsune no Senko-san | The Helpful Fox Senko-san | Заботливая лисичка Сэнко-сан! [2019, TV, 12] HDTV 720p raw+rus
    Рейтинг →
     (голосов: 1, оценка 3/5, голосовать можно 1 раз )

    Другие торренты по теме:

  • Sewayaki Kitsune no Senko-san | Senko, the Always-Helpful Fox | Заботливая 800-летняя жена! (2017) [3 тома (26 глав)] [Манга] [Русский] [JPG, PNG] [incomplete]
  • Sewayaki Kitsune no Senko-san / The Helpful Fox Senko-san / Заботливая лисичка Сенко-сан [2019, TV, 1 из 12] HDTV 720p raw
  • Sewayaki Kitsune no Senko-san / Заботливая лисичка Сенко-сан [2019, TV, 2 из 12] WEB-DL 1080p raw
  • Sewayaki Kitsune no Senko-san | The Helpful Fox Senko-san | Заботливая лисичка Сэнко-сан! [2019, TV, 4 из 12 эп.] BDrip 1080p raw


    • Комментарии (0):

      Информация

      Информация

        Посетители, находящиеся в группе Гости, не могут оставлять комментарии в данной новости.

        ↓ Меню




        ↓ Опрос

        Вы добавили сайт в закладки?
        Да
        Нет


        Популярное