.
Авторизация | Регистрация
bitok.xyz
» » Crusher Joe | Крушила Джо [1983, Movie] BDRip 720p raw+rus торрент скачать бесплатно


    Crusher Joe | Крушила Джо [1983, Movie] BDRip 720p raw+rus торрент скачать бесплатно

    Дата: 4-11-2019, 05:00 | .torrent скачали: 1

    Crusher Joe | Крушила Джо [1983, Movie] BDRip 720p raw+rusТип: Movie
    Жанр: приключения, фантастика
    Продолжительность: 132 мин.
    Дата выпуска: 12.03.1983
    Производство: Япония, Sunrise
    Автор оригинала: Такатихо Харука
    Режиссер: Ясухико Ёсикадзу
    Информационные ссылки: AniDB ||World Art ||MAL ||SHIKIMORI

    Описание

    Давным-давно, в далекой-далекой галактике... человечество вышло за пределы галактики и расселилось по другим планетам. Организация, называющая себя Крушители, согласна взяться за любую работу. Нет-нет, не подумайте, это не пираты или какие другие плохие ребята, они хорошие, это просто те, кто возьмется за такие задания, от которых уже отказались другие. И вот такой лихой команде предлагают сделку - срочно доставить на планету Миккола пациентку в анабиозе. Лидер команды Джо соглашается. Однако в космосе начинаются неприятности. Гиперпространственный прыжок срывается и они оказываются вообще в другой части галактики, за ними охотятся военные, приняв их за пиратов. И тут... груз исчезает...
    Язык озвучки: Японский, английский и русский
    Перевод:
    русские субтитрыArdeur , редактура: Mats Graule-Lade (.ass)
    английские субтитры (.ass)
    Качество видео: BDRip
    Видео: AVC/H.264, 8-bit, 960x720 (4: 3), 23, 976 fps, 2822 Kbps
    Аудио JAP: AAC, 48 kHz, 341 Kbps, 2 ch
    Аудио ENG: AAC, 48 kHz, 300 Kbps, 2 ch
    Аудио RUS Многоголосая, студия3df_voice : AAC, 48 kHz, 300 Kbps, 2 ch


    Скриншоты для ознакомления




    На русский роли озвучивали: Глеб Янышев, Мария Яковлева, Никита Кузнецов, Евгения Андрианова, Александр Аносов, Альбина Штанина, Евгений Бородаенко, Анастасия Чукунова, Антон Падалко, Екатерина Филина, Павел Тимонин.
    Сведение и мастеринг: Александр Шмат.
    Продакшн: студия звукозаписи 3df_voice (г. Тула), 2019г.
    Всем интересующимся о новых и прошлых релизах студии, а также условиях её работы ссылка на страницу
    Желающим материально отблагодарить участников за проделанную работу, просьба проследовать по ссылке
    Общее
    Уникальный идентификатор : 142502452024943946427726916508303816445 (0x6B34F954CF4D9294830B20AE30DCF6FD)
    Полное имя : Crusher Joe The Movie BDRip 720p 3df_voice.mkv
    Формат : Matroska
    Версия формата : Version 4
    Размер файла : 3, 48 Гбайт
    Продолжительность : 2 ч. 12 м.
    Общий поток : 3767 Кбит/сек
    Дата кодирования : UTC 2019-11-03 07: 40: 53
    Программа кодирования : mkvmerge v36.0.0 (\'Is That Jazz?\') 64-bit
    Библиотека кодирования : libebml v1.3.9 + libmatroska v1.5.2
    Attachments : GillSansMTPro-Medium.otf/GillSansMTPro-MediumItalic.otf/Crusher Joe BD-rip 960x720 x264 AAC_chapters.xml
    Видео
    Идентификатор : 1
    Формат : AVC
    Формат/Информация : Advanced Video Codec
    Профиль формата : High@L4
    Настройки формата : CABAC/4 Ref Frames
    Параметр CABAC формата : Да
    Параметр RefFrames формата : 4 кадра
    Идентификатор кодека : V_MPEG4/ISO/AVC
    Продолжительность : 2 ч. 12 м.
    Битрейт : 2822 Кбит/сек
    Номинальный битрейт : 3200 Кбит/сек
    Ширина : 960 пикселей
    Высота : 720 пикселей
    Соотношение сторон : 4: 3
    Режим частоты кадров : Постоянный
    Частота кадров : 23, 976 (24000/1001) кадра/сек
    Цветовое пространство : YUV
    Субдискретизация насыщенности : 4: 2: 0
    Битовая глубина : 8 бит
    Тип развёртки : Прогрессивная
    Бит/(Пиксели*Кадры) : 0.170
    Размер потока : 2, 61 Гбайт (75%)
    Библиотека кодирования : x264 core 148 r2744M b97ae06
    Настройки программы : cabac=1/ref=1/deblock=1: -1: -1/analyse=0x3: 0x113/me=umh/subme=7/psy=1/psy_rd=1.00: 0.00/mixed_ref=0/me_range=16/chroma_me=1/trellis=1/8x8dct=1/cqm=0/deadzone=21, 11/fast_pskip=1/chroma_qp_offset=-2/threads=8/lookahead_threads=1/sliced_threads=0/nr=0/decimate=1/interlaced=0/bluray_compat=0/constrained_intra=0/bframes=3/b_pyramid=2/b_adapt=1/b_bias=0/direct=3/weightb=1/open_gop=0/weightp=1/keyint=230/keyint_min=23/scenecut=40/intra_refresh=0/rc_lookahead=20/rc=cbr/mbtree=1/bitrate=3200/ratetol=1.0/qcomp=0.60/qpmin=0/qpmax=69/qpstep=4/vbv_maxrate=3200/vbv_bufsize=2285/nal_hrd=none/filler=0/ip_ratio=1.40/aq=1: 1.00
    Default : Да
    Forced : Нет
    Аудио #1
    Идентификатор : 2
    Формат : AAC LC
    Формат/Информация : Advanced Audio Codec Low Complexity
    Идентификатор кодека : A_AAC-2
    Продолжительность : 2 ч. 12 м.
    Битрейт : 300 Кбит/сек
    Каналы : 2 канала
    ChannelLayout : L R
    Частота : 48, 0 КГц
    Частота кадров : 46, 875 кадров/сек (1024 SPF)
    Метод сжатия : С потерями
    Задержка видео : 9 мс.
    Размер потока : 284 Мбайт (8%)
    Заголовок : 3df_voice
    Язык : Russian
    Default : Да
    Forced : Нет
    Аудио #2
    Идентификатор : 3
    Формат : AAC LC
    Формат/Информация : Advanced Audio Codec Low Complexity
    Идентификатор кодека : A_AAC-2
    Продолжительность : 2 ч. 12 м.
    Битрейт : 341 Кбит/сек
    Каналы : 2 канала
    ChannelLayout : L R
    Частота : 48, 0 КГц
    Частота кадров : 46, 875 кадров/сек (1024 SPF)
    Метод сжатия : С потерями
    Задержка видео : 9 мс.
    Размер потока : 322 Мбайт (9%)
    Язык : Japanese
    Default : Нет
    Forced : Нет
    Аудио #3
    Идентификатор : 4
    Формат : AAC LC
    Формат/Информация : Advanced Audio Codec Low Complexity
    Идентификатор кодека : A_AAC-2
    Продолжительность : 2 ч. 12 м.
    Битрейт : 300 Кбит/сек
    Каналы : 2 канала
    ChannelLayout : L R
    Частота : 48, 0 КГц
    Частота кадров : 46, 875 кадров/сек (1024 SPF)
    Метод сжатия : С потерями
    Задержка видео : 9 мс.
    Размер потока : 283 Мбайт (8%)
    Язык : English
    Default : Нет
    Forced : Нет
    Текст #1
    Идентификатор : 5
    Формат : ASS
    Идентификатор кодека : S_TEXT/ASS
    Идентификатор кодека/Информация : Advanced Sub Station Alpha
    Продолжительность : 2 ч. 9 м.
    Битрейт : 134 бит/сек
    ElementCount : 1622
    Метод сжатия : Без потерь
    Размер потока : 127 Кбайт (0%)
    Заголовок : Ardeur Mats Graule-Lade
    Язык : Russian
    Default : Да
    Forced : Нет
    Текст #2
    Идентификатор : 6
    Формат : ASS
    Идентификатор кодека : S_TEXT/ASS
    Идентификатор кодека/Информация : Advanced Sub Station Alpha
    Продолжительность : 2 ч. 11 м.
    Битрейт : 94 бит/сек
    ElementCount : 1562
    Метод сжатия : Без потерь
    Размер потока : 91, 4 Кбайт (0%)
    Язык : English
    Default : Нет
    Forced : Нет
    Меню
    00: 00: 00.000 : en: 00: 00: 00.000
    00: 03: 40.345 : en: 00: 03: 40.345
    00: 06: 21.673 : en: 00: 06: 21.673
    00: 10: 22.914 : en: 00: 10: 22.914
    00: 24: 50.072 : en: 00: 24: 50.072
    00: 36: 19.052 : en: 00: 36: 19.052
    00: 40: 27.800 : en: 00: 40: 27.800
    00: 52: 44.953 : en: 00: 52: 44.953
    00: 57: 40.999 : en: 00: 57: 40.999
    01: 12: 42.024 : en: 01: 12: 42.024
    01: 15: 56.969 : en: 01: 15: 56.969
    01: 19: 31.016 : en: 01: 19: 31.016
    01: 26: 56.670 : en: 01: 26: 56.670
    01: 42: 28.142 : en: 01: 42: 28.142
    01: 46: 40.436 : en: 01: 46: 40.436
    01: 51: 38.358 : en: 01: 51: 38.358
    01: 58: 00.615 : en: 01: 58: 00.615
    02: 06: 37.799 : en: 02: 06: 37.799
    02: 09: 02.360 : en: 02: 09: 02.360
    Время раздачи: 24/7 (круглосуточно) (до появления первых 3-5 скачавших)

    Онлайн видео Crusher Joe



    Crusher Joe | Крушила Джо [1983, Movie] BDRip 720p raw+rus
    Рейтинг →
     (голосов: 1, оценка 5/5, голосовать можно 1 раз )

    Другие торренты по теме:

  • Crusher Joe: The OVAs / Крушила Джо OVA 1 и 2 [1989, OVA, 2] BDRip 720p raw
  • Crusher Joe / Крушила Джо - Фильм [1983, Movie] BDRip 1080 HEVC raw
  • Crusher Joe | Крушила Джо [1983, Movie] BDRip 1080p raw+rus


    • Комментарии (0):

      Информация

      Информация

        Посетители, находящиеся в группе Гости, не могут оставлять комментарии в данной новости.

        ↓ Меню




        ↓ Опрос

        Вы добавили сайт в закладки?
        Да
        Нет


        Популярное