.
Авторизация | Регистрация
bitok.xyz
» » Phantom Yuusha Densetsu: Return The Sky | Фантом: Легенда о храбреце - Вернуть небо [1991, OVA, 1 эп.] VHSRip 720p HS торрент скачать бесплатно

    Phantom Yuusha Densetsu: Return The Sky | Фантом: Легенда о храбреце - Вернуть небо [1991, OVA, 1 эп.] VHSRip 720p HS торрент скачать бесплатно

    Дата: 5-11-2019, 05:00 | .torrent скачали: 0

    Phantom Yuusha Densetsu: Return The Sky | Фантом: Легенда о храбреце - Вернуть небо [1991, OVA, 1 эп.] VHSRip 720p HSЖанр: приключения, драма
    Тип: OVA
    Продолжительность: 1 эп. по 50 мин.
    Количество серий: 1 из 1
    Выпуск: 24.01.1991
    Производство: студияMagic Bus/マジックバス
    Автор оригинала: Такэсима Сё
    Режиссер: Дэдзаки Сатоси
    Ссылки: World-Art, ANN, AniDB, MyAnimeList

    Описание

    Японский пилот Язава пережил крушение своего Фантома. После шести месяцев реабилитации, старый друг из авиационного журнала предлагает ему расследовать случаи появления Фантомов в военном конфликте в Сальвадоре. Расследование Язавы неожиданно вскрывает международный военный заговор. По мотивам серии милитаристских фантастических романов.
    Качество видео: VHSRip
    Видео: MPEG-4 Visual (Advanced Simple@L5), 960x720 (4: 3), ~25.000 fps, ~1516 kbps
    Аудио: MPEG Audio Layer 3, 2 ch, 44.1 kHz, ~128 kbps |Звук: Японский
    Язык озвучки: Японский
    Субтитры: Английские (неотключаемые); Русские (внешние)
    Перевод: Kingmenu; VZbitten

    Скриншоты для ознакомления




    General
    Complete name : Phantom Yuusha Densetsu OVAPhantom Yuusha Densetsu OVA Kingmenu.avi
    Format : AVI
    Format/Info : Audio Video Interleave
    File size : 597 MiB
    Duration : 50 min 22 s
    Overall bit rate : 1 656 kb/s
    Writing application : XviD4PSP 6.0/53.6.0
    Video
    ID : 0
    Format : MPEG-4 Visual
    Format profile : Advanced Simple@L5
    Format settings : BVOP1
    Format settings, BVOP : 1
    Format settings, QPel : No
    Format settings, GMC : No warppoints
    Format settings, Matrix : Default (H.263)
    Codec ID : XVID
    Codec ID/Hint : XviD
    Duration : 50 min 21 s
    Bit rate : 1 516 kb/s
    Width : 960 pixels
    Height : 720 pixels
    Display aspect ratio : 4: 3
    Frame rate : 25.000 FPS
    Color space : YUV
    Chroma subsampling : 4: 2: 0
    Bit depth : 8 bits
    Scan type : Progressive
    Compression mode : Lossy
    Bits/(Pixel*Frame) : 0.088
    Stream size : 546 MiB (92%)
    Writing library : XviD 64
    Audio
    ID : 1
    Format : MPEG Audio
    Format version : Version 1
    Format profile : Layer 3
    Format settings : Joint stereo/MS Stereo
    Codec ID : 55
    Codec ID/Hint : MP3
    Duration : 50 min 22 s
    Bit rate mode : Constant
    Bit rate : 128 kb/s
    Channel(s) : 2 channels
    Sampling rate : 44.1 kHz
    Compression mode : Lossy
    Stream size : 46.1 MiB (8%)
    Alignment : Aligned on interleaves
    Interleave, duration : 26 ms (0.65 video frame)
    Writing library : LAME3.98.2
    Время раздачи: круглосуточно

    Онлайн видео Phantom Yuusha Densetsu: Return The Sky


    Прямая ссылка скачивания через uTorrent


    Phantom Yuusha Densetsu: Return The Sky | Фантом: Легенда о храбреце - Вернуть небо [1991, OVA, 1 эп.] VHSRip 720p HS
    Рейтинг →
     (голосов: 1, оценка 3/5, голосовать можно 1 раз )

    Другие торренты по теме:

  • Musaigen no Phantom World | Myriad Colors Phantom World | Красочный мир фантомов [2015, TV, 1 из 12 эп.] WEB-DL 720p raw скачать через торрент бесплатно
  • Musaigen no Phantom World / Myriad Colors Phantom World / Бескрайний мир фантомов [2016, TV, 1 из 12] WEBRip 720p Raw+Rus скачать через торрент бесплатно
  • Musaigen no Phantom World | Myriad Colors Phantom World | Красочный мир фантомов [2015, TV, 4 из 13 эп.] BDrip 1080p raw
  • Phantom 5 - Phantom 5 (2016) [MP3|320 кб / с] <Melodic Hard Rock>
  • Phantom 5 - Phantom 5 (2016) [FLAC|Lossless|image + .cue] <Melodic Hard Rock>
  • Phantom ~Requiem for the Phantom~ / Фантом: Реквием по Призраку [2009, 26 эп.] BDRip 1080p Raw
  • Phantom Breaker Extra (2013) [PS3] [JAP] [3.55] [Cobra ODE / E3 ODE PRO] [Unofficial] [En / Jp]
  • Звездные войны: Эпизод 1 - Скрытая угроза / Star Wars: Episode I - The Phantom Menace (1999) BDRip [1080p] [hand made 60fps] скачать через торрент бесплатно


    • Комментарии (0):

      Информация

      Информация

        Посетители, находящиеся в группе Гости, не могут оставлять комментарии в данной новости.

        ↓ Меню




        ↓ Опрос

        Вы добавили сайт в закладки?
        Да
        Нет


        Популярное