.
Авторизация | Регистрация
bitok.xyz
» » Бэтмен против Черепашек-ниндзя / Batman vs. Teenage Mutant Ninja Turtles (2019) BDRip [H.264] торрент скачать бесплатно


    Бэтмен против Черепашек-ниндзя / Batman vs. Teenage Mutant Ninja Turtles (2019) BDRip [H.264] торрент скачать бесплатно

    Дата: 6-11-2019, 05:00 | .torrent скачали: 1

    Бэтмен против Черепашек-ниндзя / Batman vs. Teenage Mutant Ninja Turtles (2019) BDRip [H.264]Производство: США/DC Entertainment, DR Movie, Nickelodeon
    Жанр: Мультфильм, фантастика, фэнтези, боевик, комедия, криминал, приключения
    Режиссер: Джейк Касторена

    Актеры
    Трой Бэйкер, Эрик Бауза, Даррен Крисс, Кайл Муни, Барон Вон, Карлос Аласраки, Кэс Анвар, Рэйчел Блум, Джон Ди Маджио, Кит Фергюсон

    Описание

    На исследовательскую лабораторию было совершено нападение. Защитник Готэма, просматривая записи камер видеонаблюдения, обратил внимание на стиль боя ниндзя и на то, что таинственные незнакомцы не были похожи на людей. Это означало только одно — в городе объявились новые преступники. В это время на безлюдной улице открылся люк канализации, откуда выглядывали четверо братьев — черепашки-ниндзя. Они прекрасно понимают, что некто будет продолжать воровать экспериментальные технологии для осуществления своего коварного плана. В их руках находится карта, на которой обозначены места возможных будущих ограблений. Теперь их цель — помешать таинственному врагу. Однако они даже не подозревают, с кем им предстоит столкнуться...

    Рейтинг MPAA: PG-13 (детям до 13 лет просмотр нежелателен)
    Дата мировой премьеры: 31 марта 2019
    Релиз от: NNMClub
    Продолжительность: 01: 27: 08
    Качество видео: BDRip (AVC)
    Перевод: Профессиональный многоголосый, любительский многоголосый, авторский
    Субтитры: Русские (Full), английские (Full)
    Видео: AVC/H.264, 1024x576, ~2135 Kbps
    Аудио #1: AC3, 2 ch, 192 Kbps - Русский профессиональный многоголосый (HDRezka Studio)
    Аудио #2: AC3, 6 ch, 448 Kbps - Русский любительский многоголосый (Train Studio)
    Аудио #3: AC3, 6 ch, 448 Kbps - Русский авторский (Чадов)
    Аудио #4: AC3, 6 ch, 448 Kbps - Английский (Оригинал)
    Общее
    Уникальный идентификатор : 240191727113919238897610950730874985803 (0xB4B33E74716561D28DFC358786359D4B)
    Полное имя : D: NNMБэтмен против черепашек ниндзяBatman.Vs.Teenage.Mutant.Ninja.Turtles.2019.BDRip.AVC.NNMClub.mkv
    Формат : Matroska
    Версия формата : Version 4
    Размер файла : 2, 23 Гбайт
    Продолжительность : 1 ч. 27 м.
    Общий поток : 3670 Кбит/сек
    Название фильма : For NNMClub
    Дата кодирования : UTC 2019-11-02 14: 33: 13
    Программа кодирования : mkvmerge v6.9.1 (\'Blue Panther\') 32bit built on Apr 18 2014 18: 15: 44
    Библиотека кодирования : libebml v1.3.0 + libmatroska v1.4.1
    Видео
    Идентификатор : 1
    Формат : AVC
    Формат/Информация : Advanced Video Codec
    Профиль формата : High@L4.1
    Настройки формата : CABAC/10 Ref Frames
    Параметр CABAC формата : Да
    Параметр RefFrames формата : 10 кадров
    Идентификатор кодека : V_MPEG4/ISO/AVC
    Продолжительность : 1 ч. 27 м.
    Битрейт : 2135 Кбит/сек
    Ширина : 1024 пикселя
    Высота : 576 пикселей
    Соотношение сторон : 16: 9
    Режим частоты кадров : Постоянный
    Частота кадров : 23, 976 (24000/1001) кадра/сек
    Цветовое пространство : YUV
    Субдискретизация насыщенности : 4: 2: 0
    Битовая глубина : 8 бит
    Тип развёртки : Прогрессивная
    Бит/(Пиксели*Кадры) : 0.151
    Размер потока : 1, 25 Гбайт (56%)
    Библиотека кодирования : x264 core 146 r2538 121396c
    Настройки программы : cabac=1/ref=10/deblock=1: -3: -3/analyse=0x3: 0x113/me=umh/subme=10/psy=1/psy_rd=1.00: 0.03/mixed_ref=1/me_range=48/chroma_me=1/trellis=2/8x8dct=1/cqm=0/deadzone=21, 11/fast_pskip=1/chroma_qp_offset=-3/threads=6/lookahead_threads=1/sliced_threads=0/nr=0/decimate=1/interlaced=0/bluray_compat=0/constrained_intra=0/bframes=11/b_pyramid=2/b_adapt=2/b_bias=0/direct=3/weightb=1/open_gop=0/weightp=2/keyint=240/keyint_min=23/scenecut=40/intra_refresh=0/rc_lookahead=40/rc=2pass/mbtree=0/bitrate=2135/ratetol=1.0/qcomp=0.60/qpmin=0/qpmax=69/qpstep=4/cplxblur=20.0/qblur=0.5/vbv_maxrate=50000/vbv_bufsize=62500/nal_hrd=none/filler=0/ip_ratio=1.40/pb_ratio=1.30/aq=1: 1.00
    Язык : English
    Default : Да
    Forced : Нет
    Аудио #1
    Идентификатор : 2
    Формат : AC-3
    Формат/Информация : Audio Coding 3
    Коммерческое название : Dolby Digital
    Идентификатор кодека : A_AC3
    Продолжительность : 1 ч. 27 м.
    Вид битрейта : Постоянный
    Битрейт : 192 Кбит/сек
    Каналы : 2 канала
    ChannelLayout : L R
    Частота : 48, 0 КГц
    Частота кадров : 31, 250 кадров/сек (1536 SPF)
    Битовая глубина : 16 бит
    Метод сжатия : С потерями
    Размер потока : 120 Мбайт (5%)
    Заголовок : MVO HDRezka Studio
    Язык : Russian
    ServiceKind/String : Complete Main
    Default : Да
    Forced : Нет
    Аудио #2
    Идентификатор : 3
    Формат : AC-3
    Формат/Информация : Audio Coding 3
    Коммерческое название : Dolby Digital
    Идентификатор кодека : A_AC3
    Продолжительность : 1 ч. 27 м.
    Вид битрейта : Постоянный
    Битрейт : 448 Кбит/сек
    Каналы : 6 каналов
    ChannelLayout : L R C LFE Ls Rs
    Частота : 48, 0 КГц
    Частота кадров : 31, 250 кадров/сек (1536 SPF)
    Битовая глубина : 16 бит
    Метод сжатия : С потерями
    Размер потока : 279 Мбайт (12%)
    Заголовок : MVO Train Studio
    Язык : Russian
    ServiceKind/String : Complete Main
    Default : Нет
    Forced : Нет
    Аудио #3
    Идентификатор : 4
    Формат : AC-3
    Формат/Информация : Audio Coding 3
    Коммерческое название : Dolby Digital
    Идентификатор кодека : A_AC3
    Продолжительность : 1 ч. 27 м.
    Вид битрейта : Постоянный
    Битрейт : 448 Кбит/сек
    Каналы : 6 каналов
    ChannelLayout : L R C LFE Ls Rs
    Частота : 48, 0 КГц
    Частота кадров : 31, 250 кадров/сек (1536 SPF)
    Битовая глубина : 16 бит
    Метод сжатия : С потерями
    Размер потока : 279 Мбайт (12%)
    Заголовок : AVO Chadov
    Язык : Russian
    ServiceKind/String : Complete Main
    Default : Нет
    Forced : Нет
    Аудио #4
    Идентификатор : 5
    Формат : AC-3
    Формат/Информация : Audio Coding 3
    Коммерческое название : Dolby Digital
    Идентификатор кодека : A_AC3
    Продолжительность : 1 ч. 27 м.
    Вид битрейта : Постоянный
    Битрейт : 448 Кбит/сек
    Каналы : 6 каналов
    ChannelLayout : L R C LFE Ls Rs
    Частота : 48, 0 КГц
    Частота кадров : 31, 250 кадров/сек (1536 SPF)
    Битовая глубина : 16 бит
    Метод сжатия : С потерями
    Размер потока : 279 Мбайт (12%)
    Заголовок : Original
    Язык : English
    ServiceKind/String : Complete Main
    Default : Нет
    Forced : Нет
    Текст #1
    Идентификатор : 6
    Формат : UTF-8
    Идентификатор кодека : S_TEXT/UTF8
    Идентификатор кодека/Информация : UTF-8 Plain Text
    Заголовок : Full
    Язык : Russian
    Default : Нет
    Forced : Нет
    Текст #2
    Идентификатор : 7
    Формат : UTF-8
    Идентификатор кодека : S_TEXT/UTF8
    Идентификатор кодека/Информация : UTF-8 Plain Text
    Заголовок : Full
    Язык : English
    Default : Нет
    Forced : Нет
    Меню
    00: 00: 00.000 : en: Chapter 01
    00: 09: 08.548 : en: Chapter 02
    00: 21: 14.856 : en: Chapter 03
    00: 32: 21.230 : en: Chapter 04
    00: 41: 15.055 : en: Chapter 05
    00: 50: 39.661 : en: Chapter 06
    01: 00: 42.096 : en: Chapter 07
    01: 11: 20.526 : en: Chapter 08
    01: 23: 55.572 : en: Chapter 09

    Скриншоты для ознакомления



    Все одноименные релизы в Клубе Время раздачи: 24/7 (до появления первых 3-5 скачавших)

    Онлайн видео Бэтмен против Черепашек-ниндзя



    Бэтмен против Черепашек-ниндзя/Batman vs. Teenage Mutant Ninja Turtles (2019) BDRip [H.264]
    Рейтинг →
     (голосов: 1, оценка 5/5, голосовать можно 1 раз )

    Другие торренты по теме:

  • Бэтмен против Робина / Batman vs. Robin (2015) BDRip [720p] скачать через торрент бесплатно
  • Бэтмен против Робина / Batman vs. Robin (2015) BDRip [1080p] скачать через торрент бесплатно
  • Бэтмен против Супермена: На заре справедливости / Batman v Superman: Dawn of Justice (2016) WEBRip [1080р] [Трейлер] [EN] скачать через торрент бесплатно
  • Бэтмен против Супермена: На заре справедливости / Batman v Superman: Dawn of Justice (2016) WEBRip [1080р] [Трейлер] скачать через торрент бесплатно
  • Бэтмен против Супермена: На заре справедливости / Batman v Superman: Dawn of Justice (2016) DCPRip [2K] [Hi10P, Hi444PP] [Трейлер F1] скачать через торрент бесплатно
  • Бэтмен против Супермена: На заре справедливости / Batman v Superman: Dawn of Justice (2016) WEBRip [H.264 / 1080p] [Трейлер] [EN] скачать через торрент бесплатно
  • Бэтмен против Супермена: На заре справедливости / Batman v Superman: Dawn of Justice (2016) WEBRip [H.264 / 1080p] [Трейлер] скачать через торрент бесплатно
  • Бэтмен против Супермена: На заре справедливости / Batman v Superman: Dawn of Justice (2016) DCPRip [2K] [Hi10P, Hi444PP] [Трейлер F3] скачать через торрент бесплатно


    • Комментарии (0):

      Информация

      Информация

        Посетители, находящиеся в группе Гости, не могут оставлять комментарии в данной новости.

        ↓ Меню




        ↓ Опрос

        Вы добавили сайт в закладки?
        Да
        Нет


        Популярное