.
Авторизация | Регистрация
bitok.xyz
» » Домовой (2019) WEB-DLRip [H.265] [10-bit] торрент скачать бесплатно


    Домовой (2019) WEB-DLRip [H.265] [10-bit] торрент скачать бесплатно

    Дата: 6-11-2019, 05:00 | .torrent скачали: 10

    Домовой (2019) WEB-DLRip [H.265] [10-bit]Производство: Россия | Трио Фильм
    Жанр: Семейный, фэнтези, комедия
    Режиссер: Евгений Бедарев

    Актеры
    Сергей Чирков, Екатерина Гусева, Александра Политик, Ольга Остроумова-Гутшмидт, Павел Деревянко, Юлия Сулес, Татьяна Орлова, Сергей Рубеко, Дмитрий Белоцерковский, Дмитрий Бедарев

    Описание

    В обычном и суетливом городе Москве есть необычный Дом, обросший сотнями тайн и загадок. В этом доме есть странная квартира, в которой еще надолго не задержался ни один жилец… И лишь тогда, когда в эту милую квартиру заезжает самостоятельная мама с очаровательной 8-летней дочерью Алиной, новые жильцы узнают, что жилплощадь их — непростая, а живет в ней самый настоящий Домовой. Только вот хранитель очага уже давно обиделся на весь род человеческий и сделает все вообразимые гадости, только бы остаться одному в злополучной квартире. Но всё меняется, когда Домовому бросает вызов злая колдунья…

    Возраст: 6+ (зрителям, достигшим 6 лет)
    Дата российской премьеры: 11 апреля 2019, Каропрокат
    Продолжительность: 01: 43: 11
    Качество видео: WEB-DLRip
    Субтитры: Отсутствуют
    Видео: HEVC/H.265, 1024x400, ~1967 Kbps
    Аудио: AC3, 2 ch, 160 Kbps - Русский
    Общее
    Уникальный идентификатор : 298235045727649471392699780343003735341 (0xE05DFB0242F14F18CA51D907D809E52D)
    Полное имя : Domovoy.2019.WEB-DLRip.10bit.HEVC.mkv
    Формат : Matroska
    Версия формата : Version 4/Version 2
    Размер файла : 1, 56 Гбайт
    Продолжительность : 1 ч. 43 м.
    Общий поток : 2170 Кбит/сек
    Программа кодирования : XviD4PSP 8.0.91
    Библиотека кодирования : Lavf58.20.100
    ErrorDetectionType : Per level 1
    ENCODING_INFO : MATROSKA, WEBM MKV
    Видео
    Идентификатор : 1
    Формат : HEVC
    Формат/Информация : High Efficiency Video Coding
    Профиль формата : Main10@L4.1@High
    Идентификатор кодека : V_MPEGH/ISO/HEVC
    Продолжительность : 1 ч. 43 м.
    Битрейт : 1967 Кбит/сек
    Ширина : 1024 пикселя
    Высота : 400 пикселей
    Соотношение сторон : 2, 560
    Режим частоты кадров : Постоянный
    Частота кадров : 23, 976 (24000/1001) кадра/сек
    Цветовое пространство : YUV
    Субдискретизация насыщенности : 4: 2: 0
    Битовая глубина : 10 бит
    Бит/(Пиксели*Кадры) : 0.200
    Размер потока : 1, 42 Гбайт (91%)
    Язык : Russian
    Default : Да
    Forced : Нет
    Цветовой диапазон : Limited
    Основные цвета : BT.709
    Характеристики трансфера : BT.709
    Коэффициенты матрицы : BT.709
    ENCODING_INFO : H264 HEVC NVENC VBR 2000kbps HQ
    Аудио
    Идентификатор : 2
    Формат : AC-3
    Формат/Информация : Audio Coding 3
    Параметр Endianness формата : Big
    Идентификатор кодека : A_AC3
    Продолжительность : 1 ч. 43 м.
    Вид битрейта : Постоянный
    Битрейт : 160 Кбит/сек
    Каналы : 2 канала
    Расположение каналов : Front: L R
    Частота : 48, 0 КГц
    Частота кадров : 31, 250 кадров/сек (1536 SPF)
    Битовая глубина : 16 бит
    Метод сжатия : С потерями
    Размер потока : 118 Мбайт (7%)
    Язык : Russian
    ServiceKind/String : Complete Main
    Default : Да
    Forced : Нет
    ENCODING_INFO : AC3 AC3 CBR 160kbps
    Меню
    00: 00: 00.000 : : 1
    00: 06: 09.000 : : 2
    00: 16: 14.000 : : 3
    00: 26: 05.000 : : 4
    00: 38: 53.000 : : 5
    00: 47: 08.000 : : 6
    00: 59: 20.000 : : 7
    01: 09: 14.000 : : 8
    01: 19: 49.000 : : 9
    01: 31: 03.000 : : 10
    01: 38: 01.000 : : 11

    Скриншоты для ознакомления



    Все одноименные релизы в Клубе
    Время раздачи: 19 - 23 (до появления первых 3-5 скачавших)

    Онлайн видео Домовой (2019) WEB



    Домовой (2019) WEB-DLRip [H.265] [10-bit]
    Рейтинг →
     (голосов: 1, оценка 4/5, голосовать можно 1 раз )

    Другие торренты по теме:

  • Домовой (2019) WEB-DLRip
  • Домовой (2017) WEB-DLRip (серии 1-2 из 2)
  • Домовой (2019) WEB-DLRip [H.264]


    • Комментарии (0):

      Информация

      Информация

        Посетители, находящиеся в группе Гости, не могут оставлять комментарии в данной новости.

        ↓ Меню




        ↓ Опрос

        Вы добавили сайт в закладки?
        Да
        Нет


        Популярное