.
Авторизация | Регистрация
bitok.xyz
» » Король Лев: Трилогия / The Lion King: Trilogy (1994, 1998, 2004) BDRip [H.265 / 1080p-LQ] [10-bit] торрент скачать бесплатно


    Король Лев: Трилогия / The Lion King: Trilogy (1994, 1998, 2004) BDRip [H.265 / 1080p-LQ] [10-bit] торрент скачать бесплатно

    Дата: 6-11-2019, 05:00 | .torrent скачали: 3

    Король Лев: Трилогия / The Lion King: Trilogy (1994, 1998, 2004) BDRip [H.265 / 1080p-LQ] [10-bit]Производство: США, Австралия/DWalt Disney Pictures, Walt Disney Feature Animation, Walt Disney Animation Australia, Disneytoon Studios, Disney Television Animation
    Жанр: мультфильм, мюзикл, драма, приключения, семейный, мелодрама
    Режиссер: Роджер Аллерс, Роб Минкофф, Даррел Руни, Роб ЛаДука, Брэдли Рэймонд

    Описание
    У величественного Короля-Льва Муфасы рождается наследник по имени Симба. Симба познаёт горе утраты, предательство и изгнание, но в конце концов обретает верных друзей и находит любимую. Закалённый испытаниями, он в нелёгкой борьбе отвоёвывает своё законное место в Круге жизни, осознав, что значит быть настоящим Королём...
    Продолжительность: 01: 28: 23/01: 20: 49/01: 16: 14
    Качество видео: BDRip
    Перевод: Дублированный (Лицензия)
    Субтитры: Русские, английские
    Видео: HEVC/H.265, 1920x1080, 1824x1080 ~3689 - 4644 Kbps
    Аудио 1: AC3, 6 ch, 640 Kbps - Русский
    Аудио 2: AC3, 6 ch, 640 Kbps - АнглийскийКороль Лев/The Lion King (1994) BDRip
    Производство: США/Walt Disney Pictures, Walt Disney Feature Animation
    Жанр: Мультфильм, мюзикл, драма, приключения, семейный
    Режиссер: Роджер Аллерс, Роб Минкофф

    Описание
    У величественного Короля-Льва Муфасы рождается наследник по имени Симба. Уже в детстве любознательный малыш становится жертвой интриг своего завистливого дяди Шрама, мечтающего о власти. Симба познаёт горе утраты, предательство и изгнание, но в конце концов обретает верных друзей и находит любимую. Закалённый испытаниями, он в нелёгкой борьбе отвоёвывает своё законное место в Круге жизни, осознав, что значит быть настоящим Королём.

    Возраст: 0+ (для любой зрительской аудитории)
    Рейтинг MPAA: G (нет возрастных ограничений)
    Релиз от: Mr. Fox (HEVC-CLUB)
    Продолжительность: 01: 28: 23
    Качество видео: BDRip
    Перевод: Дублированный (Лицензия)
    Субтитры: Русские, английские
    Видео: HEVC/H.265, 1920x1080, ~4194 Kbps
    Аудио 1: AC3, 6 ch, 640 Kbps - Русский, дублированный
    Аудио 2: AC3, 6 ch, 640 Kbps - Английский
    Общее
    Уникальный идентификатор : 38487355776935467238635076900460705687 (0x1CF465251587C9C4582902D144DC3797)
    Полное имя : R: The Lion King (Trilogy)The Lion King. 1994. 1080p. HEVC. 10 bit.mkv
    Формат : Matroska
    Версия формата : Version 4/Version 2
    Размер файла : 3, 38 Гбайт
    Продолжительность : 1 ч. 28 м.
    Общий поток : 5477 Кбит/сек
    Название фильма : Рип от Mr. Fox, специально для сайта Kino-mix
    Дата кодирования : UTC 2019-02-03 06: 44: 01
    Программа кодирования : mkvmerge v28.2.0 (\'The Awakening\') 64-bit
    Библиотека кодирования : libebml v1.3.6 + libmatroska v1.4.9
    Обложка : Yes
    Attachments : cover.jpg
    Видео
    Идентификатор : 1
    Формат : HEVC
    Формат/Информация : High Efficiency Video Coding
    Профиль формата : Main10@L4.1@High
    Идентификатор кодека : V_MPEGH/ISO/HEVC
    Продолжительность : 1 ч. 28 м.
    Битрейт : 4194 Кбит/сек
    Ширина : 1920 пикселей
    Высота : 1080 пикселей
    Соотношение сторон : 16: 9
    Режим частоты кадров : Постоянный
    Частота кадров : 23, 976 (23976/1000) кадра/сек
    Частота кадров в оригинале : 23, 976 (24000/1001) кадра/сек
    Цветовое пространство : YUV
    Субдискретизация насыщенности : 4: 2: 0
    Битовая глубина : 10 бит
    Бит/(Пиксели*Кадры) : 0.084
    Размер потока : 2, 59 Гбайт (77%)
    Заголовок : Рип от Mr. Fox, специально для сайта Kino-mix
    Библиотека кодирования : x265 2.8+74-fd517ae68f93: WindowsMSVC 191564 bit 10bit
    Настройки программы : cpuid=1111039/frame-threads=13/numa-pools=12/wpp/no-pmode/no-pme/no-psnr/no-ssim/log-level=2/input-csp=1/input-res=1920x1080/interlace=0/total-frames=43212/level-idc=41/high-tier=1/uhd-bd=0/ref=5/no-allow-non-conformance/no-repeat-t_heads/annexb/no-aud/no-hrd/info/hash=0/no-temporal-layers/open-gop/min-keyint=23/keyint=240/gop-lookahead=0/bframes=10/b-adapt=2/b-pyramid/bframe-bias=0/rc-lookahead=60/lookahead-slices=4/scenecut=40/radl=0/no-intra-refresh/ctu=32/min-cu-size=8/rect/amp/max-tu-size=32/tu-inter-depth=4/tu-intra-depth=4/limit-tu=1/rdoq-level=2/dynamic-rd=0.00/no-ssim-rd/signhide/no-tskip/nr-intra=0/nr-inter=0/no-constrained-intra/no-strong-intra-smoothing/max-merge=4/limit-refs=2/limit-modes/me=3/subme=7/merange=57/temporal-mvp/weightp/weightb/no-analyze-src-pics/deblock=-3: -3/no-sao/no-sao-non-deblock/rd=6/no-early-skip/no-rskip/no-fast-intra/no-tskip-fast/no-cu-lossless/no-b-intra/no-splitrd-skip/rdpenalty=0/psy-rd=2.00/psy-rdoq=1.00/no-rd-refine/no-lossless/cbqpoffs=0/crqpoffs=0/rc=crf/crf=20.0/qcomp=0.60/qpstep=4/stats-write=0/stats-read=0/vbv-maxrate=50000/vbv-bufsize=50000/vbv-init=0.9/crf-max=0.0/crf-min=0.0/ipratio=1.40/pbratio=1.30/aq-mode=1/aq-strength=0.90/no-cutree/zone-count=0/no-strict-cbr/qg-size=32/no-rc-grain/qpmax=69/qpmin=0/no-const-vbv/sar=1/overscan=0/videoformat=5/range=0/colorprim=2/transfer=2/colormatrix=2/chromaloc=0/display-window=0/max-cll=0, 0/min-luma=0/max-luma=1023/log2-max-poc-lsb=8/vui-timing-info/vui-hrd-info/slices=1/no-opt-qp-pps/no-opt-ref-list-length-pps/no-multi-pass-opt-rps/scenecut-bias=0.05/no-opt-cu-delta-qp/no-aq-motion/no-hdr/no-hdr-opt/no-dhdr10-opt/no-idr-recovery-sei/analysis-reuse-level=5/scale-factor=0/refine-intra=0/refine-inter=0/refine-mv=0/no-limit-sao/ctu-info=0/no-lowpass-dct/refine-mv-type=0/copy-pic=1/max-ausize-factor=1.0/no-dynamic-refine/no-single-sei
    Default : Да
    Forced : Нет
    Аудио #1
    Идентификатор : 2
    Формат : AC-3
    Формат/Информация : Audio Coding 3
    Идентификатор кодека : A_AC3
    Продолжительность : 1 ч. 28 м.
    Вид битрейта : Постоянный
    Битрейт : 640 Кбит/сек
    Каналы : 6 каналов
    Расположение каналов : Front: L C R, Side: L R, LFE
    Частота : 48, 0 КГц
    Частота кадров : 31, 250 кадров/сек (1536 SPF)
    Битовая глубина : 16 бит
    Метод сжатия : С потерями
    Размер потока : 405 Мбайт (12%)
    Заголовок : АС3 5.1 @ 640 kbps - Dub, BD EUR
    Язык : Russian
    ServiceKind/String : Complete Main
    Default : Нет
    Forced : Нет
    Аудио #2
    Идентификатор : 3
    Формат : AC-3
    Формат/Информация : Audio Coding 3
    Идентификатор кодека : A_AC3
    Продолжительность : 1 ч. 28 м.
    Вид битрейта : Постоянный
    Битрейт : 640 Кбит/сек
    Каналы : 6 каналов
    Расположение каналов : Front: L C R, Side: L R, LFE
    Частота : 48, 0 КГц
    Частота кадров : 31, 250 кадров/сек (1536 SPF)
    Битовая глубина : 16 бит
    Метод сжатия : С потерями
    Размер потока : 405 Мбайт (12%)
    Заголовок : АС3 5.1 @ 640 kbps - Original
    Язык : English
    ServiceKind/String : Complete Main
    Default : Нет
    Forced : Нет
    Текст #1
    Идентификатор : 4
    Формат : UTF-8
    Идентификатор кодека : S_TEXT/UTF8
    Идентификатор кодека/Информация : UTF-8 Plain Text
    Продолжительность : 1 ч. 21 м.
    Битрейт : 93 бит/сек
    ElementCount : 1151
    Размер потока : 56, 2 Кбайт (0%)
    Заголовок : Full
    Язык : Russian
    Default : Нет
    Forced : Нет
    Текст #2
    Идентификатор : 5
    Формат : UTF-8
    Идентификатор кодека : S_TEXT/UTF8
    Идентификатор кодека/Информация : UTF-8 Plain Text
    Продолжительность : 1 ч. 22 м.
    Битрейт : 59 бит/сек
    ElementCount : 1179
    Размер потока : 36, 0 Кбайт (0%)
    Заголовок : Full
    Язык : English
    Default : Нет
    Forced : Нет
    Меню
    00: 00: 00.000 : : Chapter 01
    00: 04: 40.071 : : Chapter 02
    00: 08: 10.405 : : Chapter 03
    00: 11: 28.979 : : Chapter 04
    00: 14: 09.557 : : Chapter 05
    00: 17: 51.028 : : Chapter 06
    00: 22: 54.748 : : Chapter 07
    00: 25: 36.116 : : Chapter 08
    00: 30: 24.196 : : Chapter 09
    00: 35: 52.150 : : Chapter 10
    00: 40: 14.077 : : Chapter 11
    00: 41: 14.429 : : Chapter 12
    00: 44: 16.945 : : Chapter 13
    00: 48: 20.563 : : Chapter 14
    00: 50: 07.210 : : Chapter 15
    00: 53: 14.773 : : Chapter 16
    00: 57: 50.842 : : Chapter 17
    01: 00: 56.568 : : Chapter 18
    01: 02: 32.331 : : Chapter 19
    01: 08: 49.625 : : Chapter 20
    01: 12: 41.023 : : Chapter 21
    01: 16: 42.305 : : Chapter 22
    01: 20: 45.131 : : Chapter 23
    01: 23: 23.872 : : Chapter 24
    01: 28: 23.296 : : Chapter 25


    Онлайн видео Король Лев: Трилогия



    Король Лев: Трилогия/The Lion King: Trilogy (1994, 1998, 2004) BDRip [H.265/1080p-LQ] [10-bit]
    Рейтинг →
     (голосов: 1, оценка 4/5, голосовать можно 1 раз )

    Другие торренты по теме:

  • Король Лев / The Lion King (1994-2004) Blu-Ray [1080p] [Трилогия]
  • Король Лев / The Lion King (1994-2004) BDRemux [H.264 / 1080p] (Трилогия)
  • Король лев.Трилогия / The Lion King.Trilogy (1994 - 2004) BDRip [H.264 / 720p]


    • Комментарии (0):

      Информация

      Информация

        Посетители, находящиеся в группе Гости, не могут оставлять комментарии в данной новости.

        ↓ Меню




        ↓ Опрос

        Вы добавили сайт в закладки?
        Да
        Нет


        Популярное