.
Авторизация | Регистрация
bitok.xyz
» » Малыш и Карлсон, который живет на крыше (1971) DVDRip [H.264] торрент скачать бесплатно


    Малыш и Карлсон, который живет на крыше (1971) DVDRip [H.264] торрент скачать бесплатно

    Дата: 6-11-2019, 05:00 | .torrent скачали: 1

    Малыш и Карлсон, который живет на крыше (1971) DVDRip [H.264]Производство: СССР/ТО Экран
    Жанр: Сказка, комедия, телеспектакль
    Режиссер: Маргарита Микаэлян, Валентин Плучек

    Актеры
    Спартак Мишулин, Татьяна Пельтцер, Михаил Защипин, Юрий Соковнин, Андрей Миронов, Наталья Защипина, Полина Казакевич, Елена Юргенсон, Константин Райкин

    Описание

    Детский телевизионный фильм-сказка по мотивам книги Астрид Линдгрен о Малыше и Карлсоне.
    Озорной Карлсон и доверчивый Малыш — герои всем известной сказки Астрид Линдгрен. Карлсон очень любит пошалить, а на все последствия шалостей у него есть фирменная отговорка: Пустяки, дело-то житейское! Правда, родители Малыша так не считают, но все равно скучать со своим летающим другом ему не приходится. Они стали настоящей командой, которая найдет выход из любой ситуации: однажды предотвращают крупную кражу, но самое главное и сложное их дело — укрощение злой домомучительницы Фрекен Бок.

    Возраст: 12+ (зрителям, достигшим 12 лет)
    Продолжительность: 01: 31: 05
    Качество видео: DVDRip
    Субтитры: Отсутствуют
    Видео: AVC/H.264, 704х528, ~1 977 kbps
    Аудио: AC3, 2 ch, 256 kbps
    Общее
    Уникальный идентификатор : 225559117046956040535583029670036219201 (0xA9B11B14127D2A15B711F50F1F01A541)
    Полное имя : K: СКАЗКИ, МУЛЬТИКИМалыш и Карлсон, который живет на крыше. 1971Малыш и Карлсон, который живет на крыше. 1971.mkv
    Формат : Matroska
    Версия формата : Version 4/Version 2
    Размер файла : 1, 42 Гбайт
    Продолжительность : 1 ч. 31 м.
    Общий поток : 2235 Кбит/сек
    Название фильма : Release for Topmost
    Дата кодирования : UTC 2019-11-05 06: 32: 17
    Программа кодирования : mkvmerge v6.2.0 (\'Promised Land\') built on Apr 28 2013 12: 22: 01
    Библиотека кодирования : libebml v1.3.0 + libmatroska v1.4.0
    Attachment : Yes
    Видео
    Идентификатор : 1
    Формат : AVC
    Формат/Информация : Advanced Video Codec
    Профиль формата : High@L4.1
    Параметр CABAC формата : Да
    Параметр ReFrames формата : 12 кадров
    Идентификатор кодека : V_MPEG4/ISO/AVC
    Продолжительность : 1 ч. 31 м.
    Битрейт : 1977 Кбит/сек
    Ширина : 704 пикселя
    Высота : 528 пикселей
    Соотношение сторон : 4: 3
    Режим частоты кадров : Постоянный
    Частота кадров : 25, 000 кадров/сек
    Цветовое пространство : YUV
    Субдискретизация насыщенности : 4: 2: 0
    Битовая глубина : 8 бит
    Тип развёртки : Прогрессивная
    Бит/(Пиксели*Кадры) : 0.213
    Размер потока : 1, 23 Гбайт (87%)
    Заголовок : Малыш и Карлсон, который живет на крыше. 1971 /Release for Topmost/
    Библиотека кодирования : x264 core 146 r2538 121396c
    Настройки программы : cabac=1/ref=12/deblock=1: -3: -3/analyse=0x3: 0x113/me=umh/subme=11/psy=1/psy_rd=1.00: 0.15/mixed_ref=1/me_range=32/chroma_me=1/trellis=2/8x8dct=1/cqm=0/deadzone=21, 11/fast_pskip=0/chroma_qp_offset=-3/threads=12/lookahead_threads=2/sliced_threads=0/nr=0/decimate=0/interlaced=0/bluray_compat=0/constrained_intra=0/bframes=8/b_pyramid=2/b_adapt=2/b_bias=0/direct=1/weightb=1/open_gop=0/weightp=2/keyint=240/keyint_min=23/scenecut=40/intra_refresh=0/rc_lookahead=40/rc=2pass/mbtree=0/bitrate=1977/ratetol=1.0/qcomp=0.60/qpmin=0/qpmax=69/qpstep=4/cplxblur=20.0/qblur=0.5/vbv_maxrate=14000/vbv_bufsize=14000/nal_hrd=none/filler=0/ip_ratio=1.40/pb_ratio=1.30/aq=1: 0.90
    Язык : Russian
    Default : Да
    Forced : Нет
    Аудио
    Идентификатор : 2
    Формат : AC-3
    Формат/Информация : Audio Coding 3
    Расширение режима : CM (complete main)
    Параметр Endianness формата : Big
    Идентификатор кодека : A_AC3
    Продолжительность : 1 ч. 31 м.
    Вид битрейта : Постоянный
    Битрейт : 256 Кбит/сек
    Каналы : 2 канала
    Расположение каналов : Front: L R
    Частота : 48, 0 КГц
    Битовая глубина : 16 бит
    Метод сжатия : С потерями
    Размер потока : 167 Мбайт (11%)
    Язык : Russian
    Default : Да
    Forced : Нет


    Онлайн видео Юная Лига Справедливости: Аутсайдеры



    Малыш и Карлсон, который живет на крыше (1971) DVDRip [H.264]
    Рейтинг →
     (голосов: 1, оценка 3/5, голосовать можно 1 раз )

    Другие торренты по теме:

  • А. Линдгрен | Малыш и Карлсон, который живет на крыше (1976) [DjVu, PDF]
  • Астрид Линдгрен | Малыш и Карлсон. Карлсон вернулся (2002) [MP3]
  • Малыш и Карлсон, Карлсон вернулся (1968 - 1970) BDRip [H.264 / 1080p]
  • Малыш и Карлсон (1957-65) BDRip [480p] iPod / iPhone скачать через торрент бесплатно
  • Малыш и Карлсон (1957-65) BDRip [720p] ATV скачать через торрент бесплатно
  • А. Линдгрен | Малыш и Карлсон, который живет на крыше (1976) [DJVU]
  • Подборка | Раскраски Малыш и Карлсон (2016) [JPG]
  • Астрид Линдгрен | Малыш и Карлсон, который живет на крыше и другие сказки (2006) [MP3]


    • Комментарии (0):

      Информация

      Информация

        Посетители, находящиеся в группе Гости, не могут оставлять комментарии в данной новости.

        ↓ Меню




        ↓ Опрос

        Вы добавили сайт в закладки?
        Да
        Нет


        Популярное