.
Авторизация | Регистрация
bitok.xyz
» » Angry Birds 2 в кино / The Angry Birds Movie 2 (2019) BDRip [H.265] [10-bit] торрент скачать бесплатно


    Angry Birds 2 в кино / The Angry Birds Movie 2 (2019) BDRip [H.265] [10-bit] торрент скачать бесплатно

    Дата: 7-11-2019, 05:00 | .torrent скачали: 0

    Angry Birds 2 в кино / The Angry Birds Movie 2 (2019) BDRip [H.265] [10-bit]Производство: США, Финляндия/Rovio Animation, Sony Pictures Animation
    Жанр: Мультфильм, комедия, приключения, семейный
    Режиссер: Туроп Ван Орман, Джон Райс

    Актеры
    Джейсон Судейкис, Джош Гад, Лесли Джонс, Билл Хейдер, Рэйчел Блум, Аквафина, Стерлинг К. Браун, Эухенио Дербес, Тиффани Хэддиш, Дэнни Макбрайд

    Описание

    Птицы узнали о существовании голодных зелёных свиней, после чего началась священная война, которая длилась многие годы. Однако теперь на горизонте появился новый враг — Зета, обитательница третьего, замёрзшего острова. Она считает, что все должны почувствовать на себе силу холода, и начинает атаку на дальних родственников, обитающих в тёплых краях. Теперь птицы и свиньи должны объединиться, чтобы остановить заморозки.

    Возраст: 6+ (зрителям, достигшим 6 лет)
    Рейтинг MPAA: PG (рекомендуется присутствие родителей)
    Продолжительность: 01: 36: 47
    Качество видео: BDRip
    Перевод: Дублированный (iTunes)
    Субтитры: Русские (Форсированные, полные), английские (Полные, SDH)
    Видео: HEVC/H.265, 720x388, ~1564 Kbps
    Аудио 1: AC3, 2 ch, 160 Kbps - Русский
    Аудио 2: AC3, 2 ch, 160 Kbps - Английский
    Общее
    Уникальный идентификатор : 19574172259883131577165547138966181911 (0xEB9D933F7549C5D50F138AC2AED5817)
    Полное имя : The.Angry.Birds.Movie.2.2019.BDRip.10bit.HEVC.mkv
    Формат : Matroska
    Версия формата : Version 4/Version 2
    Размер файла : 1, 30 Гбайт
    Продолжительность : 1 ч. 36 м.
    Общий поток : 1923 Кбит/сек
    Название фильма : The Angry Birds Movie 2 2019
    Программа кодирования : XviD4PSP 8.0.91
    Библиотека кодирования : Lavf58.20.100
    ErrorDetectionType : Per level 1
    ENCODING_INFO : MATROSKA, WEBM MKV
    Видео
    Идентификатор : 1
    Формат : HEVC
    Формат/Информация : High Efficiency Video Coding
    Профиль формата : Main10@L4.1@High
    Идентификатор кодека : V_MPEGH/ISO/HEVC
    Продолжительность : 1 ч. 36 м.
    Битрейт : 1564 Кбит/сек
    Ширина : 720 пикселей
    Высота : 388 пикселей
    Соотношение сторон : 1, 85: 1
    Режим частоты кадров : Постоянный
    Частота кадров : 23, 976 (24000/1001) кадра/сек
    Цветовое пространство : YUV
    Субдискретизация насыщенности : 4: 2: 0
    Битовая глубина : 10 бит
    Бит/(Пиксели*Кадры) : 0.234
    Размер потока : 1, 06 Гбайт (81%)
    Язык : English
    Default : Да
    Forced : Нет
    Цветовой диапазон : Full
    ENCODING_INFO : H264 HEVC NVENC VBR 1600kbps HQ
    Аудио #1
    Идентификатор : 2
    Формат : AC-3
    Формат/Информация : Audio Coding 3
    Параметр Endianness формата : Big
    Идентификатор кодека : A_AC3
    Продолжительность : 1 ч. 36 м.
    Вид битрейта : Постоянный
    Битрейт : 160 Кбит/сек
    Каналы : 2 канала
    Расположение каналов : Front: L R
    Частота : 48, 0 КГц
    Частота кадров : 31, 250 кадров/сек (1536 SPF)
    Битовая глубина : 16 бит
    Метод сжатия : С потерями
    Размер потока : 111 Мбайт (8%)
    Заголовок : iTunes
    Язык : Russian
    ServiceKind/String : Complete Main
    Default : Да
    Forced : Нет
    ENCODING_INFO : AC3 AC3 CBR 160kbps
    Аудио #2
    Идентификатор : 3
    Формат : AC-3
    Формат/Информация : Audio Coding 3
    Параметр Endianness формата : Big
    Идентификатор кодека : A_AC3
    Продолжительность : 1 ч. 36 м.
    Вид битрейта : Постоянный
    Битрейт : 160 Кбит/сек
    Каналы : 2 канала
    Расположение каналов : Front: L R
    Частота : 48, 0 КГц
    Частота кадров : 31, 250 кадров/сек (1536 SPF)
    Битовая глубина : 16 бит
    Метод сжатия : С потерями
    Размер потока : 111 Мбайт (8%)
    Заголовок : Original
    Язык : English
    ServiceKind/String : Complete Main
    Default : Нет
    Forced : Нет
    ENCODING_INFO : DTS-HD MA AC3 CBR 160kbps
    Текст #1
    Идентификатор : 4
    Формат : UTF-8
    Идентификатор кодека : S_TEXT/UTF8
    Идентификатор кодека/Информация : UTF-8 Plain Text
    Заголовок : Forced
    Язык : Russian
    Default : Да
    Forced : Да
    ENCODING_INFO : SUBRIP COPY Быстрое
    Текст #2
    Идентификатор : 5
    Формат : UTF-8
    Идентификатор кодека : S_TEXT/UTF8
    Идентификатор кодека/Информация : UTF-8 Plain Text
    Заголовок : Full
    Язык : Russian
    Default : Нет
    Forced : Нет
    ENCODING_INFO : SUBRIP COPY Быстрое
    Текст #3
    Идентификатор : 6
    Формат : UTF-8
    Идентификатор кодека : S_TEXT/UTF8
    Идентификатор кодека/Информация : UTF-8 Plain Text
    Заголовок : Full
    Язык : English
    Default : Нет
    Forced : Нет
    ENCODING_INFO : SUBRIP COPY Быстрое
    Текст #4
    Идентификатор : 7
    Формат : UTF-8
    Идентификатор кодека : S_TEXT/UTF8
    Идентификатор кодека/Информация : UTF-8 Plain Text
    Заголовок : SDH
    Язык : English
    Default : Нет
    Forced : Нет
    ENCODING_INFO : SUBRIP COPY Быстрое
    Меню
    00: 00: 00.000 : : Chapter 01
    00: 05: 19.486 : : Chapter 02
    00: 12: 05.892 : : Chapter 03
    00: 18: 52.673 : : Chapter 04
    00: 24: 11.867 : : Chapter 05
    00: 28: 46.683 : : Chapter 06
    00: 34: 48.460 : : Chapter 07
    00: 40: 10.158 : : Chapter 08
    00: 47: 10.828 : : Chapter 09
    00: 52: 56.382 : : Chapter 10
    00: 58: 04.690 : : Chapter 11
    01: 04: 36.122 : : Chapter 12
    01: 09: 55.649 : : Chapter 13
    01: 15: 40.286 : : Chapter 14
    01: 21: 11.116 : : Chapter 15
    01: 26: 26.848 : : Chapter 16

    Скриншоты для ознакомления



    Все одноименные релизы в Клубе
    Время раздачи: 19 - 23 (до появления первых 3-5 скачавших)

    Онлайн видео Angry Birds 2 в кино



    Angry Birds 2 в кино/The Angry Birds Movie 2 (2019) BDRip [H.265] [10-bit]
    Рейтинг →
     (голосов: 1, оценка 5/5, голосовать можно 1 раз )

    Другие торренты по теме:

  • Angry Birds: Anthology / Angry Birds: Антология (2011-2013) [En] (4.0 / 2.1 / 4.0.1 / 1.6 / 1.5 / 1.2.1) RePack KloneB@DGuY скачать через торрент бесплатно
  • Angry Birds в кино / Angry Birds (2016) WEBRip [H.264 / 1080p] [Трейлер] скачать через торрент бесплатно
  • Angry Birds в кино / Angry Birds (2016) CAMRip
  • Angry Birds в кино / Angry Birds (2016) TC [Звук с CAMRip]
  • Angry Birds в кино / Angry Birds (2016) WEBRip
  • Angry Birds в кино / Angry Birds (2016) WEBRip [H.264 / 720p-LQ]
  • Angry Birds в кино / Angry Birds (2016) TC [Line]
  • Angry Birds в кино / Angry Birds (2016) TC [H.264 / 720p]


    • Комментарии (0):

      Информация

      Информация

        Посетители, находящиеся в группе Гости, не могут оставлять комментарии в данной новости.

        ↓ Меню




        ↓ Опрос

        Вы добавили сайт в закладки?
        Да
        Нет


        Популярное

        Малышарики (2015-2019) WEB-DL [H.264 / 1080p-LQ] (серии 1-154 из 208) [Обновляемая]

        (скачиваний: 106)
        Футурама / Futurama (1999-2013) DVDRip (7 Сезонов, 140 серии) скачать через торрент бесплатно

        (скачиваний: 102)
        Рик и Морти / Rick and Morty (2015) WEB-DL [H.264 / 1080p] (Сезон 2, серии 1-10 из 10) Сыендук [EN / RU Sub] скачать через торрент бесплатно

        (скачиваний: 64)
        Жила-была царевна (2015-2019) WEB-DLRip [H.264 / 720p-LQ] (сезон 1, серии 1-18 из 26) [Обновляемая]

        (скачиваний: 58)
        Металионы / Metalions (2018-2019) WEB-DLRip [H.264 / 720p-LQ] (сезон 1, серии 1-52 из 52) [Обновляемая]

        (скачиваний: 47)
        В гостях у сказки (сборник 56 фильмов) (1939-2009) DVDRip

        (скачиваний: 42)
        Рик и Морти / Rick and Morty (2013) BDRip [H.264 / 720p-LQ] (сезон 1, серии 1-11 из 11) Сыендук

        (скачиваний: 42)
        Рик и Морти / Rick and Morty (2013) BDRip [H.264 / 1080p] (Сезон 1, серии 1-11 из 11) Сыендук [EN Sub] скачать через торрент бесплатно

        (скачиваний: 41)
        Три кота (2018) WEB-DLRip [H.264 / 720p-LQ] (сезон 3, серии 105-106 из 156)

        (скачиваний: 38)
        Королевская академия / Regal Academy (2016) SATRip [H.264] (Сезон 1, 26 серий из 26) [UKR]

        (скачиваний: 25)