.
Авторизация | Регистрация
bitok.xyz
» » Эллиот / Elliot the Littlest Reindeer (2018) BDRip [H.265 / 720p] [10-bit] торрент скачать бесплатно


    Эллиот / Elliot the Littlest Reindeer (2018) BDRip [H.265 / 720p] [10-bit] торрент скачать бесплатно

    Дата: 7-11-2019, 05:00 | .torrent скачали: 0

    Эллиот / Elliot the Littlest Reindeer (2018) BDRip [H.265 / 720p] [10-bit]Производство: Канада, Awesometown Entertainment, Double Dutch International, Elgin Road Productions
    Жанр: Мультфильм, Семейный
    Режиссер: Дженнифер Весткотт

    Описание

    Знакомьтесь: Эллиот — маленькая лошадка с большой мечтой. Ему так хочется занять место одного из северных оленей в упряжке Санты и дарить детям радость! У него есть всего 3 дня, чтобы доказать окружающим, что он достоин стать одним из них, даже если рогами не вышел! Ведь если чего-то хочешь по-настоящему, то чудеса случаются непременно!

    Возраст: 6+ (зрителям, достигшим 6 лет)
    Рейтинг MPAA: PG (рекомендуется присутствие родителей)
    Продолжительность: 01: 29: 48
    Качество видео: BDRip (720p)
    Перевод: Дублированный (iTunes )
    Субтитры: Отсутствуют
    Видео: HEVC/H.265, 1280x544, ~3872 Kbps
    Аудио 1: AC3, 6 ch, 384 Kbps | Русский
    Аудио 2: AC3, 6 ch, 448 Kbps | Английский
    Общее
    Уникальный идентификатор : 251520884008375655658440132998762985867 (0xBD392903DA7732986AD2818D5699F98B)
    Полное имя : Elliot.The.Littlest.Reindeer.2018.BDRip.720p.10bit.HEVC.mkv
    Формат : Matroska
    Версия формата : Version 4/Version 2
    Размер файла : 3, 01 Гбайт
    Продолжительность : 1 ч. 29 м.
    Общий поток : 4800 Кбит/сек
    Название фильма : Elliot The Littlest Reindeer 2018
    Программа кодирования : XviD4PSP 8.0.91
    Библиотека кодирования : Lavf58.20.100
    ErrorDetectionType : Per level 1
    ENCODING_INFO : MATROSKA, WEBM MKV
    Видео
    Идентификатор : 1
    Формат : HEVC
    Формат/Информация : High Efficiency Video Coding
    Профиль формата : Main10@L4.1@High
    Идентификатор кодека : V_MPEGH/ISO/HEVC
    Продолжительность : 1 ч. 29 м.
    Битрейт : 3872 Кбит/сек
    Ширина : 1280 пикселей
    Высота : 544 пикселя
    Соотношение сторон : 2, 35: 1
    Режим частоты кадров : Постоянный
    Частота кадров : 23, 976 (24000/1001) кадра/сек
    Цветовое пространство : YUV
    Субдискретизация насыщенности : 4: 2: 0
    Битовая глубина : 10 бит
    Бит/(Пиксели*Кадры) : 0.232
    Размер потока : 2, 43 Гбайт (81%)
    Язык : English
    Default : Да
    Forced : Нет
    Цветовой диапазон : Full
    ENCODING_INFO : H264 HEVC NVENC VBR 4000kbps HQ
    Аудио #1
    Идентификатор : 2
    Формат : AC-3
    Формат/Информация : Audio Coding 3
    Параметр Endianness формата : Big
    Идентификатор кодека : A_AC3
    Продолжительность : 1 ч. 29 м.
    Вид битрейта : Постоянный
    Битрейт : 384 Кбит/сек
    Каналы : 6 каналов
    Расположение каналов : Front: L C R, Side: L R, LFE
    Частота : 48, 0 КГц
    Частота кадров : 31, 250 кадров/сек (1536 SPF)
    Битовая глубина : 16 бит
    Метод сжатия : С потерями
    Размер потока : 247 Мбайт (8%)
    Заголовок : iTunes
    Язык : Russian
    ServiceKind/String : Complete Main
    Default : Да
    Forced : Нет
    ENCODING_INFO : AC3 COPY Безопасное
    Аудио #2
    Идентификатор : 3
    Формат : AC-3
    Формат/Информация : Audio Coding 3
    Параметр Endianness формата : Big
    Идентификатор кодека : A_AC3
    Продолжительность : 1 ч. 29 м.
    Вид битрейта : Постоянный
    Битрейт : 448 Кбит/сек
    Каналы : 6 каналов
    Расположение каналов : Front: L C R, Side: L R, LFE
    Частота : 48, 0 КГц
    Частота кадров : 31, 250 кадров/сек (1536 SPF)
    Битовая глубина : 16 бит
    Метод сжатия : С потерями
    Размер потока : 288 Мбайт (9%)
    Заголовок : Original
    Язык : English
    ServiceKind/String : Complete Main
    Default : Нет
    Forced : Нет
    ENCODING_INFO : DTS-HD MA AC3 CBR 448kbps
    Меню
    00: 00: 00.000 : : 00: 00: 00.000
    00: 06: 45.989 : : 00: 06: 45.989
    00: 13: 04.200 : : 00: 13: 04.200
    00: 21: 03.554 : : 00: 21: 03.554
    00: 30: 10.225 : : 00: 30: 10.225
    00: 37: 53.938 : : 00: 37: 53.938
    00: 45: 58.422 : : 00: 45: 58.422
    00: 52: 16.050 : : 00: 52: 16.050
    01: 02: 10.060 : : 01: 02: 10.060
    01: 10: 29.225 : : 01: 10: 29.225
    01: 16: 19.033 : : 01: 16: 19.033
    01: 21: 28.634 : : 01: 21: 28.634

    Скриншоты для ознакомления



    Все одноименные релизы в Клубе
    Время раздачи: 19 - 23 (до появления первых 3-5 скачавших)

    Онлайн видео Эллиот



    Эллиот/Elliot the Littlest Reindeer (2018) BDRip [H.265/720p] [10-bit]
    Рейтинг →
     (голосов: 1, оценка 5/5, голосовать можно 1 раз )

    Другие торренты по теме:

  • Эллиот / Elliot the Littlest Reindeer (2018) WEB-DL [H.264 / 1080p-LQ]
  • Эллиот / Elliot the Littlest Reindeer (2018) WEB-DL [1080p] ATV
  • Эллиот / Elliot the Littlest Reindeer (2018) BDRemux [H.264 / 1080p]
  • Эллиот / Elliot the Littlest Reindeer (2018) BDRip [H.264]
  • Эллиот / Elliot the Littlest Reindeer (2018) BDRip [H.265 / 1080p] [10-bit]
  • Эллиот / Elliot the Littlest Reindeer (2018) BDRip [H.265] [10-bit]
  • Билли Эллиот / Billy Elliot (2000) BDRemux [VC-1 / 1080p]


    • Комментарии (0):

      Информация

      Информация

        Посетители, находящиеся в группе Гости, не могут оставлять комментарии в данной новости.

        ↓ Меню




        ↓ Опрос

        Вы добавили сайт в закладки?
        Да
        Нет


        Популярное