.
Авторизация | Регистрация
bitok.xyz
» » Эллиот / Elliot the Littlest Reindeer (2018) BDRip [H.265] [10-bit] торрент скачать бесплатно


    Эллиот / Elliot the Littlest Reindeer (2018) BDRip [H.265] [10-bit] торрент скачать бесплатно

    Дата: 7-11-2019, 05:00 | .torrent скачали: 1

    Эллиот / Elliot the Littlest Reindeer (2018) BDRip [H.265] [10-bit]Производство: Канада, Awesometown Entertainment, Double Dutch International, Elgin Road Productions
    Жанр: Мультфильм, Семейный
    Режиссер: Дженнифер Весткотт

    Описание

    Знакомьтесь: Эллиот — маленькая лошадка с большой мечтой. Ему так хочется занять место одного из северных оленей в упряжке Санты и дарить детям радость! У него есть всего 3 дня, чтобы доказать окружающим, что он достоин стать одним из них, даже если рогами не вышел! Ведь если чего-то хочешь по-настоящему, то чудеса случаются непременно!

    Возраст: 6+ (зрителям, достигшим 6 лет)
    Рейтинг MPAA: PG (рекомендуется присутствие родителей)
    Продолжительность: 01: 29: 48
    Качество видео: BDRip
    Перевод: Дублированный (iTunes )
    Субтитры: Отсутствуют
    Видео: HEVC/H.265, 720x306, ~1568 Kbps
    Аудио 1: AC3, 2 ch, 160 Kbps | Русский
    Аудио 2: AC3, 2 ch, 160 Kbps | Английский
    Общее
    Уникальный идентификатор : 157586149170108213078760833128119323895 (0x768DFD048DD2E7CCC3914DCF667ECCF7)
    Полное имя : Elliot.The.Littlest.Reindeer.2018.BDRip.10bit.HEVC.mkv
    Формат : Matroska
    Версия формата : Version 4/Version 2
    Размер файла : 1, 21 Гбайт
    Продолжительность : 1 ч. 29 м.
    Общий поток : 1926 Кбит/сек
    Название фильма : Elliot The Littlest Reindeer 2018
    Программа кодирования : XviD4PSP 8.0.91
    Библиотека кодирования : Lavf58.20.100
    ErrorDetectionType : Per level 1
    ENCODING_INFO : MATROSKA, WEBM MKV
    Видео
    Идентификатор : 1
    Формат : HEVC
    Формат/Информация : High Efficiency Video Coding
    Профиль формата : Main10@L4.1@High
    Идентификатор кодека : V_MPEGH/ISO/HEVC
    Продолжительность : 1 ч. 29 м.
    Битрейт : 1568 Кбит/сек
    Ширина : 720 пикселей
    Высота : 306 пикселей
    Соотношение сторон : 2, 35: 1
    Режим частоты кадров : Постоянный
    Частота кадров : 23, 976 (24000/1001) кадра/сек
    Цветовое пространство : YUV
    Субдискретизация насыщенности : 4: 2: 0
    Битовая глубина : 10 бит
    Бит/(Пиксели*Кадры) : 0.297
    Размер потока : 1007 Мбайт (81%)
    Язык : English
    Default : Да
    Forced : Нет
    Цветовой диапазон : Full
    ENCODING_INFO : H264 HEVC NVENC VBR 1600kbps HQ
    Аудио #1
    Идентификатор : 2
    Формат : AC-3
    Формат/Информация : Audio Coding 3
    Параметр Endianness формата : Big
    Идентификатор кодека : A_AC3
    Продолжительность : 1 ч. 29 м.
    Вид битрейта : Постоянный
    Битрейт : 160 Кбит/сек
    Каналы : 2 канала
    Расположение каналов : Front: L R
    Частота : 48, 0 КГц
    Частота кадров : 31, 250 кадров/сек (1536 SPF)
    Битовая глубина : 16 бит
    Метод сжатия : С потерями
    Размер потока : 103 Мбайт (8%)
    Заголовок : iTunes
    Язык : Russian
    ServiceKind/String : Complete Main
    Default : Да
    Forced : Нет
    ENCODING_INFO : AC3 AC3 CBR 160kbps
    Аудио #2
    Идентификатор : 3
    Формат : AC-3
    Формат/Информация : Audio Coding 3
    Параметр Endianness формата : Big
    Идентификатор кодека : A_AC3
    Продолжительность : 1 ч. 29 м.
    Вид битрейта : Постоянный
    Битрейт : 160 Кбит/сек
    Каналы : 2 канала
    Расположение каналов : Front: L R
    Частота : 48, 0 КГц
    Частота кадров : 31, 250 кадров/сек (1536 SPF)
    Битовая глубина : 16 бит
    Метод сжатия : С потерями
    Размер потока : 103 Мбайт (8%)
    Заголовок : Original
    Язык : English
    ServiceKind/String : Complete Main
    Default : Нет
    Forced : Нет
    ENCODING_INFO : DTS-HD MA AC3 CBR 160kbps
    Меню
    00: 00: 00.000 : : 00: 00: 00.000
    00: 06: 45.989 : : 00: 06: 45.989
    00: 13: 04.200 : : 00: 13: 04.200
    00: 21: 03.554 : : 00: 21: 03.554
    00: 30: 10.225 : : 00: 30: 10.225
    00: 37: 53.938 : : 00: 37: 53.938
    00: 45: 58.422 : : 00: 45: 58.422
    00: 52: 16.050 : : 00: 52: 16.050
    01: 02: 10.060 : : 01: 02: 10.060
    01: 10: 29.225 : : 01: 10: 29.225
    01: 16: 19.033 : : 01: 16: 19.033
    01: 21: 28.634 : : 01: 21: 28.634

    Скриншоты для ознакомления



    Все одноименные релизы в Клубе
    Время раздачи: 19 - 23 (до появления первых 3-5 скачавших)

    Онлайн видео Эллиот



    Эллиот/Elliot the Littlest Reindeer (2018) BDRip [H.265] [10-bit]
    Рейтинг →
     (голосов: 1, оценка 5/5, голосовать можно 1 раз )

    Другие торренты по теме:

  • Эллиот / Elliot the Littlest Reindeer (2018) WEB-DL [H.264 / 1080p-LQ]
  • Эллиот / Elliot the Littlest Reindeer (2018) WEB-DL [1080p] ATV
  • Эллиот / Elliot the Littlest Reindeer (2018) BDRemux [H.264 / 1080p]
  • Эллиот / Elliot the Littlest Reindeer (2018) BDRip [H.264]
  • Эллиот / Elliot the Littlest Reindeer (2018) BDRip [H.265 / 1080p] [10-bit]
  • Эллиот / Elliot the Littlest Reindeer (2018) BDRip [H.265 / 720p] [10-bit]
  • Билли Эллиот / Billy Elliot (2000) BDRemux [VC-1 / 1080p]


    • Комментарии (0):

      Информация

      Информация

        Посетители, находящиеся в группе Гости, не могут оставлять комментарии в данной новости.

        ↓ Меню




        ↓ Опрос

        Вы добавили сайт в закладки?
        Да
        Нет


        Популярное

        Малышарики (2015-2019) WEB-DL [H.264 / 1080p-LQ] (серии 1-154 из 208) [Обновляемая]

        (скачиваний: 106)
        Футурама / Futurama (1999-2013) DVDRip (7 Сезонов, 140 серии) скачать через торрент бесплатно

        (скачиваний: 102)
        Рик и Морти / Rick and Morty (2015) WEB-DL [H.264 / 1080p] (Сезон 2, серии 1-10 из 10) Сыендук [EN / RU Sub] скачать через торрент бесплатно

        (скачиваний: 64)
        Жила-была царевна (2015-2019) WEB-DLRip [H.264 / 720p-LQ] (сезон 1, серии 1-18 из 26) [Обновляемая]

        (скачиваний: 58)
        Металионы / Metalions (2018-2019) WEB-DLRip [H.264 / 720p-LQ] (сезон 1, серии 1-52 из 52) [Обновляемая]

        (скачиваний: 47)
        В гостях у сказки (сборник 56 фильмов) (1939-2009) DVDRip

        (скачиваний: 42)
        Рик и Морти / Rick and Morty (2013) BDRip [H.264 / 720p-LQ] (сезон 1, серии 1-11 из 11) Сыендук

        (скачиваний: 42)
        Рик и Морти / Rick and Morty (2013) BDRip [H.264 / 1080p] (Сезон 1, серии 1-11 из 11) Сыендук [EN Sub] скачать через торрент бесплатно

        (скачиваний: 41)
        Три кота (2018) WEB-DLRip [H.264 / 720p-LQ] (сезон 3, серии 105-106 из 156)

        (скачиваний: 38)
        Королевская академия / Regal Academy (2016) SATRip [H.264] (Сезон 1, 26 серий из 26) [UKR]

        (скачиваний: 25)