.
Авторизация | Регистрация
bitok.xyz
» » Тайная жизнь домашних животных 2 / The Secret Life of Pets 2 (2019) UHD BDRemux [H.265 / 2160p] [4K, HDR, 10-bit] торрент скачать бесплатно


    Тайная жизнь домашних животных 2 / The Secret Life of Pets 2 (2019) UHD BDRemux [H.265 / 2160p] [4K, HDR, 10-bit] торрент скачать бесплатно

    Дата: 7-11-2019, 05:00 | .torrent скачали: 0

    Тайная жизнь домашних животных 2 / The Secret Life of Pets 2 (2019) UHD BDRemux [H.265 / 2160p] [4K, HDR, 10-bit]Производство: США, Франция, Япония/Universal Pictures, Illumination Entertainment
    Жанр: Комедия, Приключения
    Режиссер: Крис Рено, Джонатан дель Валь

    Описание

    Макс уезжает с хозяйкой, мужем и ребёнком в гости на ранчо. Тем временем, в городе у Снежка и Гиджет свои приключения.

    Возраст: 6+ (зрителям, достигшим 6 лет)
    Рейтинг MPAA: PG (рекомендуется присутствие родителей)
    Дата мировой премьеры: 24 мая 2019
    Дата российской премьеры: 30 мая 2019, UPI
    Релиз от: selezen
    Продолжительность: 01: 26: 06
    Качество видео: UHD BDRemux
    Перевод: Дублированный
    Субтитры: Русские (Full), Английские
    Видео: HEVC/H.265, 3840x2160, ~59, 4 Mbps
    Аудио 1: AC3, 6 ch, 640 Kbps - Русский (DUB, Лицензия)
    Аудио 2: AC3, 2 ch, 192 Kbps - Украинский
    Аудио 3: TrueHD, 8 ch, 3318 Kbps - Английский
    Аудио 4: AC3, 6 ch, 448 Kbps - Английский
    General
    Unique ID : 124784095879897966642140199775686538725 (0x5DE08AED53F9BCA8C132803354EAB5E5)
    Complete name : D: Video111The.Secret.Life.of.Pets.2.2019.Lic.BDREMUX.2160p.HDR.seleZen.mkv
    Format : Matroska
    Format version : Version 4
    File size : 38.5 GiB
    Duration : 1 h 26 min
    Overall bit rate mode : Variable
    Overall bit rate : 64.1 Mb/s
    Movie name : The Secret Life of Pets 2 2019 from селезень
    Encoded date : UTC 2019-10-09 07: 22: 55
    Writing application : mkvmerge v22.0.0 (\'At The End Of The World\') 64-bit
    Writing library : libebml v1.3.5 + libmatroska v1.4.8
    Video
    ID : 1
    Format : HEVC
    Format/Info : High Efficiency Video Coding
    Format profile : Main10@L5.1@High
    HDR format : SMPTE ST 2094 App 4, Version 1, HDR10+ Profile B compatible
    Codec ID : V_MPEGH/ISO/HEVC
    Duration : 1 h 26 min
    Bit rate : 59.4 Mb/s
    Width : 3 840 pixels
    Height : 2 160 pixels
    Display aspect ratio : 16: 9
    Frame rate mode : Constant
    Frame rate : 23.976 (24000/1001) FPS
    Color space : YUV
    Chroma subsampling : 4: 2: 0 (Type 2)
    Bit depth : 10 bits
    Bits/(Pixel*Frame) : 0.299
    Stream size : 35.7 GiB (93%)
    Language : English
    Default : Yes
    Forced : No
    Color range : Limited
    Color primaries : BT.2020
    Transfer characteristics : PQ
    Matrix coefficients : BT.2020 non-constant
    Mastering display color pri : Display P3
    Mastering display luminance : min: 0.0001 cd/m2, max: 1000 cd/m2
    Maximum Content Light Level : 1000 cd/m2
    Maximum Frame-Average Light : 412 cd/m2
    Audio #1
    ID : 2
    Format : AC-3
    Format/Info : Audio Coding 3
    Commercial name : Dolby Digital
    Codec ID : A_AC3
    Duration : 1 h 26 min
    Bit rate mode : Constant
    Bit rate : 640 kb/s
    Channel(s) : 6 channels
    Channel layout : L R C LFE Ls Rs
    Sampling rate : 48.0 kHz
    Frame rate : 31.250 FPS (1536 SPF)
    Bit depth : 16 bits
    Compression mode : Lossy
    Stream size : 394 MiB (1%)
    Title : Dub License
    Language : Russian
    Service kind : Complete Main
    Default : Yes
    Forced : Yes
    Audio #2
    ID : 3
    Format : AC-3
    Format/Info : Audio Coding 3
    Commercial name : Dolby Digital
    Codec ID : A_AC3
    Duration : 1 h 26 min
    Bit rate mode : Constant
    Bit rate : 192 kb/s
    Channel(s) : 2 channels
    Channel layout : L R
    Sampling rate : 48.0 kHz
    Frame rate : 31.250 FPS (1536 SPF)
    Bit depth : 16 bits
    Compression mode : Lossy
    Stream size : 118 MiB (0%)
    Title : Dub
    Language : Ukrainian
    Service kind : Complete Main
    Default : No
    Forced : No
    Audio #3
    ID : 4
    Format : MLP FBA 16-ch
    Format/Info : Meridian Lossless Packing FBA with 16-channel presentation
    Commercial name : Dolby TrueHD with Dolby Atmos
    Codec ID : A_TRUEHD
    Duration : 1 h 26 min
    Bit rate mode : Variable
    Bit rate : 3 318 kb/s
    Maximum bit rate : 4 644 kb/s
    Channel(s) : 8 channels
    Channel layout : L R C LFE Ls Rs Lb Rb
    Sampling rate : 48.0 kHz
    Frame rate : 1 200.000 FPS (40 SPF)
    Compression mode : Lossless
    Stream size : 1.99 GiB (5%)
    Title : Original
    Language : English
    Default : No
    Forced : No
    Number of dynamic objects : 11
    Bed channel count : 1 channel
    Bed channel configuration : LFE
    Audio #4
    ID : 5
    Format : AC-3
    Format/Info : Audio Coding 3
    Commercial name : Dolby Digital
    Codec ID : A_AC3
    Duration : 1 h 26 min
    Bit rate mode : Constant
    Bit rate : 448 kb/s
    Channel(s) : 6 channels
    Channel layout : L R C LFE Ls Rs
    Sampling rate : 48.0 kHz
    Frame rate : 31.250 FPS (1536 SPF)
    Bit depth : 16 bits
    Compression mode : Lossy
    Stream size : 276 MiB (1%)
    Language : English
    Service kind : Complete Main
    Default : No
    Forced : No
    Text #1
    ID : 6
    Format : UTF-8
    Codec ID : S_TEXT/UTF8
    Codec ID/Info : UTF-8 Plain Text
    Duration : 1 h 1 min
    Bit rate : 0 b/s
    Count of elements : 8
    Stream size : 266 Bytes (0%)
    Title : Forced
    Language : Russian
    Default : Yes
    Forced : Yes
    Text #2
    ID : 7
    Format : UTF-8
    Codec ID : S_TEXT/UTF8
    Codec ID/Info : UTF-8 Plain Text
    Duration : 1 h 24 min
    Bit rate : 60 b/s
    Count of elements : 1093
    Stream size : 37.4 KiB (0%)
    Title : Full
    Language : Russian
    Default : No
    Forced : No
    Text #3
    ID : 8
    Format : UTF-8
    Codec ID : S_TEXT/UTF8
    Codec ID/Info : UTF-8 Plain Text
    Duration : 1 h 25 min
    Bit rate : 53 b/s
    Count of elements : 1324
    Stream size : 33.3 KiB (0%)
    Title : Full
    Language : English
    Default : No
    Forced : No
    Text #4
    ID : 9
    Format : UTF-8
    Codec ID : S_TEXT/UTF8
    Codec ID/Info : UTF-8 Plain Text
    Duration : 1 h 25 min
    Bit rate : 77 b/s
    Count of elements : 1924
    Stream size : 48.5 KiB (0%)
    Title : SDH
    Language : English
    Default : No
    Forced : No
    Menu
    00: 00: 00.000 : en: Chapter 1
    00: 05: 35.209 : en: Chapter 2
    00: 10: 08.482 : en: Chapter 3
    00: 13: 26.972 : en: Chapter 4
    00: 16: 40.457 : en: Chapter 5
    00: 19: 57.613 : en: Chapter 6
    00: 24: 10.740 : en: Chapter 7
    00: 28: 16.403 : en: Chapter 8
    00: 30: 54.936 : en: Chapter 9
    00: 35: 15.780 : en: Chapter 10
    00: 39: 56.644 : en: Chapter 11
    00: 45: 47.995 : en: Chapter 12
    00: 49: 52.489 : en: Chapter 13
    00: 56: 55.662 : en: Chapter 14
    00: 58: 35.887 : en: Chapter 15
    01: 02: 49.599 : en: Chapter 16
    01: 07: 17.283 : en: Chapter 17
    01: 12: 49.490 : en: Chapter 18
    01: 15: 22.476 : en: Chapter 19
    01: 18: 10.686 : en: Chapter 20
    Диск на Blu-ray.com
    Просмотр 4K HDR-контента на ПК
    Скриншоты для ознакомления



    Все одноименные релизы в Клубе
    Время раздачи: Мультитрекер (до появления первых 3-5 скачавших)

    Онлайн видео Тайная жизнь домашних животных 2



    Тайная жизнь домашних животных 2/The Secret Life of Pets 2 (2019) UHD BDRemux [H.265/2160p] [4K, HDR, 10-bit]
    Рейтинг →
     (голосов: 1, оценка 3/5, голосовать можно 1 раз )

    Другие торренты по теме:

  • BBC: Магия грибов (Тайная жизнь грибов) / The Magic of Mushrooms (2014) HDTVRip [H.264 / 720p] скачать через торрент бесплатно
  • Тайная жизнь пчёл / The Secret Life of Bees (2008) HDTV [H.264 / 1080i] скачать через торрент бесплатно
  • Animal Planet. Тайная жизнь домашних питомцев / Secret life of pets (2014) HDTVRip [Серия 1-8 из 8] скачать через торрент бесплатно
  • Тайная жизнь миллионеров (06.07.2015) SATRip скачать через торрент бесплатно
  • Тайная жизнь миллионеров (07.07.2015) SATRip скачать через торрент бесплатно
  • Тайная жизнь миллионеров (09.07.2015) SATRip скачать через торрент бесплатно
  • Тайная жизнь бобров (Заклинатели бобров) / The Beaver Whisperers (2013) HDRip 576p скачать через торрент бесплатно
  • Хуан Санчес, Аксель Гильден | Тайная жизнь Фиделя Кастро. Шокирующие откровения личного телохранителя кубинского лидера (2015) [FB2] скачать через торрент бесплатно


    • Комментарии (0):

      Информация

      Информация

        Посетители, находящиеся в группе Гости, не могут оставлять комментарии в данной новости.

        ↓ Меню




        ↓ Опрос

        Вы добавили сайт в закладки?
        Да
        Нет


        Популярное