.
Авторизация | Регистрация
bitok.xyz
» » Лига Справедливости против Смертоносной Пятерки / Justice League vs. The Fatal Five (2019) WEB-DL [H.264 / 1080p-LQ] [MVO] торрент скачать бесплатно


    Лига Справедливости против Смертоносной Пятерки / Justice League vs. The Fatal Five (2019) WEB-DL [H.264 / 1080p-LQ] [MVO] торрент скачать бесплатно

    Дата: 7-11-2019, 05:00 | .torrent скачали: 1

    Лига Справедливости против Смертоносной Пятерки / Justice League vs. The Fatal Five (2019) WEB-DL [H.264 / 1080p-LQ] [MVO]Производство: США, Warner Bros. Animation, DC Comics
    Жанр: Рисованная анимация, Приключения
    Режиссер: Сэм Лью
    Персонажи: Супермен, Бэтмен, Чудо-женщина, Зелёный Фонарь, Старбой

    Описание

    Очередной мультфильм линейки DC Universe Animated Original Movies.
    Лиге придется столкнуться с новой командой суперзлодеев, путешествующих во времени, которая прибывает в Метрополис в поисках Джессики Круз, начинающего Зеленого Фонаря. Лига Справедливости была создана после того, как главные супергерои Америки поняли, что будет куда эффективнее, если они будут работать вместе. Но однажды и суперзлодеи поняли, что будет лучше сражаться против Лиги вместе, так и была создана Смертоносная Пятерка. С помощью Джессики Круз Мано, Убеждатель и Тарок собираются освободить еще двоих членов команды, Изумрудную Императрицу и Валидуса. Вскоре героям придется обратиться к помощи союзника из другого времени, Старбоя, который обладает весьма неустойчивой мощью и может оказаться ключом к победе над Смертоносной пятеркой.

    Рейтинг MPAA: PG-13 (детям до 13 лет просмотр нежелателен)
    Дата мировой премьеры: 29.03.2019
    Продолжительность: 01: 17: 30
    Качество видео: WEB-DL
    Перевод: Многоголосый закадровый (Flarrow Films)
    Субтитры: Русский, Английский
    Видео: AVC/H.264, 1920x1080, ~5750 kbps
    Аудио 1: AC3, 6 ch, 448 Kbps | Русский
    Аудио 2: AC3, 6 ch, 448 Kbps | Английский
    General
    Unique ID : 183392272593529728851118338559918132081 (0x89F81122B2DFC01DB0D756F4B492CB71)
    Complete name : (2019) Justice League vs. the Fatal Five_1080p_RU_NNM-Club.mkv
    Format : Matroska
    Format version : Version 4/Version 2
    File size : 3.60 GiB
    Duration : 1 h 17 min
    Overall bit rate : 6 648 kb/s
    Encoded date : UTC 2019-11-05 21: 48: 44
    Writing application : mkvmerge v7.1.0 (\'Good Love\') 64bit built on Jul 27 2014 13: 06: 55
    Writing library : libebml v1.3.0 + libmatroska v1.4.1
    Cover : Yes
    Attachments : Cover.jpg
    Video
    ID : 1
    Format : AVC
    Format/Info : Advanced Video Codec
    Format profile : High@L4
    Format settings : CABAC/4 Ref Frames
    Format settings, CABAC : Yes
    Format settings, ReFrames : 4 frames
    Codec ID : V_MPEG4/ISO/AVC
    Duration : 1 h 17 min
    Bit rate : 5 760 kb/s
    Width : 1 920 pixels
    Height : 1 080 pixels
    Display aspect ratio : 16: 9
    Frame rate mode : Constant
    Frame rate : 23.976 (24000/1001) FPS
    Color space : YUV
    Chroma subsampling : 4: 2: 0
    Bit depth : 8 bits
    Scan type : Progressive
    Bits/(Pixel*Frame) : 0.116
    Stream size : 3.11 GiB (86%)
    Writing library : x264 core 155 r2901 7d0ff22
    Encoding settings : cabac=1/ref=4/deblock=1: -3: -3/analyse=0x3: 0x133/me=umh/subme=9/psy=1/psy_rd=1.10: 0.25/mixed_ref=1/me_range=32/chroma_me=1/trellis=2/8x8dct=1/cqm=0/deadzone=6, 6/fast_pskip=1/chroma_qp_offset=-4/threads=24/lookahead_threads=2/sliced_threads=0/nr=0/decimate=1/interlaced=0/bluray_compat=0/constrained_intra=0/bframes=6/b_pyramid=2/b_adapt=2/b_bias=0/direct=3/weightb=1/open_gop=0/weightp=2/keyint=240/keyint_min=24/scenecut=40/intra_refresh=0/rc_lookahead=40/rc=2pass/mbtree=1/bitrate=5760/ratetol=1.0/qcomp=0.60/qpmin=0/qpmax=69/qpstep=4/cplxblur=20.0/qblur=0.5/vbv_maxrate=20000/vbv_bufsize=25000/nal_hrd=none/filler=0/ip_ratio=1.40/aq=1: 1.00
    Default : Yes
    Forced : No
    Color range : Limited
    Color primaries : BT.709
    Transfer characteristics : BT.709
    Matrix coefficients : BT.709
    Audio #1
    ID : 2
    Format : AC-3
    Format/Info : Audio Coding 3
    Codec ID : A_AC3
    Duration : 1 h 17 min
    Bit rate mode : Constant
    Bit rate : 448 kb/s
    Channel(s) : 6 channels
    Channel positions : Front: L C R, Side: L R, LFE
    Sampling rate : 48.0 kHz
    Frame rate : 31.250 FPS (1536 SPF)
    Bit depth : 16 bits
    Compression mode : Lossy
    Delay relative to video : -5 ms
    Stream size : 248 MiB (7%)
    Title : MVO (Flarrow Films)
    Language : Russian
    Service kind : Complete Main
    Default : Yes
    Forced : No
    Audio #2
    ID : 3
    Format : AC-3
    Format/Info : Audio Coding 3
    Codec ID : A_AC3
    Duration : 1 h 17 min
    Bit rate mode : Constant
    Bit rate : 448 kb/s
    Channel(s) : 6 channels
    Channel positions : Front: L C R, Side: L R, LFE
    Sampling rate : 48.0 kHz
    Frame rate : 31.250 FPS (1536 SPF)
    Bit depth : 16 bits
    Compression mode : Lossy
    Stream size : 248 MiB (7%)
    Title : Original
    Language : English
    Service kind : Complete Main
    Default : No
    Forced : No
    Text #1
    ID : 4
    Format : UTF-8
    Codec ID : S_TEXT/UTF8
    Codec ID/Info : UTF-8 Plain Text
    Duration : 1 h 13 min
    Bit rate : 72 b/s
    Count of elements : 766
    Stream size : 39.1 KiB (0%)
    Title : UGN SUBZ Translators
    Language : Russian
    Default : No
    Forced : No
    Text #2
    ID : 5
    Format : UTF-8
    Codec ID : S_TEXT/UTF8
    Codec ID/Info : UTF-8 Plain Text
    Duration : 1 h 16 min
    Bit rate : 37 b/s
    Count of elements : 672
    Stream size : 21.2 KiB (0%)
    Title : English
    Language : English
    Default : No
    Forced : No
    Menu
    00: 00: 00.000 : : Chapter 1
    00: 10: 46.396 : : Chapter 2
    00: 21: 41.091 : : Chapter 3
    00: 31: 03.862 : : Chapter 4
    00: 42: 55.323 : : Chapter 5
    00: 54: 12.791 : : Chapter 6
    01: 03: 17.836 : : Chapter 7
    01: 14: 21.457 : : Chapter 8

    File: (2019) Justice League vs. the Fatal Five_1080p_RU_NNM-Club.mkv
    Duration: 01: 17: 30 (4649.94)
    Track #1: video
    lang: und (1)
    codc: V_MPEG4/ISO/AVC - H264/AVC (22)
    reso: 1920x1080 - 16: 9
    fram: 23.976 fps
    rate: 5750 kbps (5749.84)
    dura: 01: 17: 30 (4649.9)
    size: 3.11 GB (3342017809)
    Track #2: audio (MVO (Flarrow Films))
    lang: rus - Russian (15)
    codc: A_AC3 - AC3 (2)
    chan: 6 - 5.1 Surround
    samp: 48000 Hz
    rate: 448 kbps (448.04)
    dura: 01: 17: 30 (4649.63)
    size: 248.34 MB (260400344)
    Track #3: audio (Original)
    lang: Unknown (1)
    codc: A_AC3 - AC3 (2)
    chan: 6 - 5.1 Surround
    samp: 48000 Hz
    rate: 448 kbps (448.04)
    dura: 01: 17: 30 (4649.86)
    size: 248.35 MB (260414673)
    Track #4: subtitles (UGN SUBZ Translators)
    lang: rus - Russian (15)
    type: S_TEXT/UTF8 - SRT (3)
    size: 39.06 KB (39995)
    Track #5: subtitles (English)
    lang: Unknown (1)
    type: S_TEXT/UTF8 - SRT (3)
    size: 21.20 KB (21710)
    Sizes: (check sanity)
    disk: 3.60 GB (3864254729)
    atts: 131.49 KB (134641)
    trac: 3.60 GB (3862894531) based on track size
    bitr: 3.60 GB (3862849769) based on bitrate
    tdif: 1.17 MB (1225557) 0.03%
    bdif: 1.21 MB (1270318) 0.03%

    Скриншоты для ознакомления



    Все одноименные релизы в Клубе
    Время раздачи: 24/7 (круглосуточно) (до появления первых 3-5 скачавших)

    Онлайн видео Лига Справедливости против Смертоносной Пятерки



    Лига Справедливости против Смертоносной Пятерки/Justice League vs. The Fatal Five (2019) WEB-DL [H.264/1080p-LQ] [MVO]
    Рейтинг →
     (голосов: 1, оценка 3/5, голосовать можно 1 раз )

    Другие торренты по теме:

  • Лига Справедливости: Трон Атлантиды / Justice League: Throne of Atlantis (2015) WEB-DL [H.264 / 720p-LQ] [EN / EN Sub] скачать через торрент бесплатно
  • Лига Справедливости: Трон Атлантиды / Justice League: Throne of Atlantis (2015) BDRip [1080p]
  • Лига Справедливости: Трон Атлантиды / Justice League: Throne of Atlantis (2015) BDRip [720p]
  • Лига Справедливости: Трон Атлантиды / Justice League: Throne of Atlantis (2015) WEB-DL [720p] скачать через торрент бесплатно
  • LEGO супергерои DC: Лига справедливости против Лиги Бизарро / Lego DC Comics Super Heroes: Justice League vs. Bizarro League (2015) BDRip [H.264 / 720p-LQ] [EN / EN Sub] скачать через торрент бесплатно
  • Лего супергерои DC: Лига справедливости против Лиги Бизарро / Lego DC Comics Super Heroes: Justice League vs. Bizarro League (2015) BDRemux [H.264 / 1080p] скачать через торрент бесплатно
  • Лига справедливости: Гибель / Justice League: Doom (2012) HDRip [H.264] скачать через торрент бесплатно
  • LEGO супергерои DC: Лига справедливости против Лиги Бизарро / Lego DC Comics Super Heroes: Justice League vs. Bizarro League (2015) BDRip [576p] iPad скачать через торрент бесплатно


    • Комментарии (0):

      Информация

      Информация

        Посетители, находящиеся в группе Гости, не могут оставлять комментарии в данной новости.

        ↓ Меню




        ↓ Опрос

        Вы добавили сайт в закладки?
        Да
        Нет


        Популярное