.
Авторизация | Регистрация
bitok.xyz
» » Чудо-женщина: Кровные узы / Wonder Woman: Bloodlines (2019) WEB-DL [H.264 / 1080p-LQ] [MVO] торрент скачать бесплатно


    Чудо-женщина: Кровные узы / Wonder Woman: Bloodlines (2019) WEB-DL [H.264 / 1080p-LQ] [MVO] торрент скачать бесплатно

    Дата: 7-11-2019, 05:00 | .torrent скачали: 3

    Чудо-женщина: Кровные узы / Wonder Woman: Bloodlines (2019) WEB-DL [H.264 / 1080p-LQ] [MVO]Производство: США, Warner Bros. Animation, DC Comics
    Жанр: Рисованная анимация, Приключения
    Режиссер: Джастин Коупленд, Сэм Лью

    Актеры
    Розарио Доусон (Чудо-женщина), Джеффри Донован (Стив Тревор)

    Описание

    Принцесса Амазонок Диана из Тимескиры решает спасти пилота истребителя Стива Тревора, и это выбор, который изменит мир. Выполняя роль как посла, так и защитника, Диана получает имя Чудо-Женщина от народов Земли. Она решает помочь проблемной молодой девушке, завербованной смертельной организацией, известной как Villainy, Inc., чьи преступные планы нацелены на вторжение в райский дом Чудо-Женщины Темискиру. Приготовьтесь к захватывающему приключению, наполненному жестокими битвами, мифами и чудесами!

    Рейтинг MPAA: PG-13 (детям до 13 лет просмотр нежелателен)
    Дата мировой премьеры: 05.10.2019
    Продолжительность: 01: 22: 53
    Качество видео: WEB-DL
    Перевод: Многоголосый закадровый (Flarrow Films)
    Субтитры: Русский, Английский
    Видео: AVC/H.264, 1920x1080, ~5000
    Аудио 1: DTS, 6 ch, 2238 kbps | Русский
    Аудио 2: DTS, 6 ch, 2330 kbps | Английский
    General
    Unique ID : 236005557151254638407033276430485188198 (0xB18D045739756494AA69CBCE83326E66)
    Complete name : (2019) Wonder Woman. Bloodlines_1080p_RU_NNM-Club.mkv
    Format : Matroska
    Format version : Version 4/Version 2
    File size : 5.54 GiB
    Duration : 1 h 22 min
    Overall bit rate : 9 572 kb/s
    Encoded date : UTC 2019-11-06 01: 34: 16
    Writing application : mkvmerge v7.1.0 (\'Good Love\') 64bit built on Jul 27 2014 13: 06: 55
    Writing library : libebml v1.3.0 + libmatroska v1.4.1
    Cover : Yes
    Attachments : Cover.jpg
    Video
    ID : 1
    Format : AVC
    Format/Info : Advanced Video Codec
    Format profile : High@L4
    Format settings : CABAC/2 Ref Frames
    Format settings, CABAC : Yes
    Format settings, ReFrames : 2 frames
    Format settings, GOP : N=1
    Codec ID : V_MPEG4/ISO/AVC
    Duration : 1 h 22 min
    Bit rate : 5 000 kb/s
    Width : 1 920 pixels
    Height : 1 080 pixels
    Display aspect ratio : 16: 9
    Frame rate mode : Constant
    Frame rate : 23.976 (24000/1001) FPS
    Color space : YUV
    Chroma subsampling : 4: 2: 0
    Bit depth : 8 bits
    Scan type : Progressive
    Bits/(Pixel*Frame) : 0.101
    Stream size : 2.89 GiB (52%)
    Writing library : x264 core 129
    Encoding settings : cabac=1/ref=2/deblock=1: 0: 0/analyse=0x3: 0x113/me=hex/subme=6/psy=1/psy_rd=1.00: 0.00/mixed_ref=1/me_range=16/chroma_me=1/trellis=0/8x8dct=1/cqm=0/deadzone=21, 11/fast_pskip=1/chroma_qp_offset=-2/threads=8/lookahead_threads=1/sliced_threads=0/nr=0/decimate=1/interlaced=0/bluray_compat=0/constrained_intra=0/bframes=0/weightp=2/keyint=250/keyint_min=25/scenecut=40/intra_refresh=0/rc_lookahead=40/rc=2pass/mbtree=1/bitrate=5000/ratetol=1.0/qcomp=0.60/qpmin=10/qpmax=51/qpstep=4/cplxblur=20.0/qblur=0.5/ip_ratio=1.41/aq=1: 1.00
    Default : Yes
    Forced : No
    Audio #1
    ID : 2
    Format : DTS
    Format/Info : Digital Theater Systems
    Format profile : MA/Core
    Codec ID : A_DTS
    Duration : 1 h 22 min
    Bit rate mode : Variable/Constant
    Bit rate : 2 237 kb/s/1 509 kb/s
    Channel(s) : 6 channels
    Channel positions : Front: L C R, Side: L R, LFE
    Sampling rate : 48.0 kHz
    Frame rate : 93.750 FPS (512 SPF)
    Bit depth : 16 bits
    Compression mode : Lossless/Lossy
    Stream size : 1.29 GiB (23%)
    Title : MVO (Flarrow Films)
    Language : Russian
    Default : Yes
    Forced : No
    Audio #2
    ID : 3
    Format : DTS
    Format/Info : Digital Theater Systems
    Format profile : MA/Core
    Codec ID : A_DTS
    Duration : 1 h 22 min
    Bit rate mode : Variable/Constant
    Bit rate : 2 329 kb/s/1 509 kb/s
    Channel(s) : 6 channels
    Channel positions : Front: L C R, Side: L R, LFE
    Sampling rate : 48.0 kHz
    Frame rate : 93.750 FPS (512 SPF)
    Bit depth : 24 bits
    Compression mode : Lossless/Lossy
    Stream size : 1.35 GiB (24%)
    Title : Original
    Language : English
    Default : No
    Forced : No
    Text #1
    ID : 4
    Format : UTF-8
    Codec ID : S_TEXT/UTF8
    Codec ID/Info : UTF-8 Plain Text
    Duration : 1 h 19 min
    Bit rate : 84 b/s
    Count of elements : 973
    Stream size : 49.5 KiB (0%)
    Title : UGN SUBZ Translators
    Language : Russian
    Default : No
    Forced : No
    Text #2
    ID : 5
    Format : UTF-8
    Codec ID : S_TEXT/UTF8
    Codec ID/Info : UTF-8 Plain Text
    Duration : 1 h 19 min
    Bit rate : 46 b/s
    Count of elements : 967
    Stream size : 27.3 KiB (0%)
    Title : English
    Language : English
    Default : No
    Forced : No
    Menu
    00: 00: 00.000 : : Глава 01
    00: 10: 04.395 : : Глава 02
    00: 19: 53.483 : : Глава 03
    00: 28: 26.538 : : Глава 04
    00: 38: 44.030 : : Глава 05
    00: 47: 37.229 : : Глава 06
    00: 54: 35.313 : : Глава 07
    01: 03: 48.157 : : Глава 08
    01: 12: 13.287 : : Глава 09
    01: 17: 54.836 : : Глава 10

    File: (2019) Wonder Woman. Bloodlines_1080p_RU_NNM-Club.mkv
    Duration: 01: 22: 53 (4972.6)
    Track #1: video
    lang: und (1)
    codc: V_MPEG4/ISO/AVC - H264/AVC (22)
    reso: 1920x1080 - 16: 9
    fram: 23.976 fps
    rate: 5001 kbps (5000.75)
    dura: 01: 22: 53 (4972.55)
    size: 2.89 GB (3108308513)
    Track #2: audio (MVO (Flarrow Films))
    lang: rus - Russian (15)
    codc: A_DTS - DTS (13)
    chan: 6 - 5.1 Surround
    samp: 48000 Hz
    rate: 2238 kbps (2237.78)
    dura: 01: 22: 53 (4972.58)
    size: 1.30 GB (1390942676)
    Track #3: audio (Original)
    lang: Unknown (1)
    codc: A_DTS - DTS (13)
    chan: 6 - 5.1 Surround
    samp: 48000 Hz
    rate: 2330 kbps (2329.77)
    dura: 01: 22: 53 (4972.58)
    size: 1.35 GB (1448120294)
    Track #4: subtitles (UGN SUBZ Translators)
    lang: rus - Russian (15)
    type: S_TEXT/UTF8 - SRT (3)
    size: 49.46 KB (50649)
    Track #5: subtitles (English)
    lang: Unknown (1)
    type: S_TEXT/UTF8 - SRT (3)
    size: 27.25 KB (27908)
    Sizes: (check sanity)
    disk: 5.54 GB (5949635202)
    atts: 141.13 KB (144514)
    trac: 5.54 GB (5947450040) based on track size
    bitr: 5.54 GB (5947357083) based on bitrate
    tdif: 1.95 MB (2040648) 0.03%
    bdif: 2.03 MB (2133604) 0.03%

    Скриншоты для ознакомления



    Все одноименные релизы в Клубе
    Время раздачи: 24/7 (круглосуточно) (до появления первых 3-5 скачавших)

    Онлайн видео Чудо-женщина: Кровные узы



    Чудо-женщина: Кровные узы/Wonder Woman: Bloodlines (2019) WEB-DL [H.264/1080p-LQ] [MVO]
    Рейтинг →
     (голосов: 1, оценка 5/5, голосовать можно 1 раз )

    Другие торренты по теме:

  • Чудо-Женщина / Wonder Woman (2017) WEBRip [H.264 / 1080p] [Трейлер]
  • Rupert Gregson-Williams - Wonder Woman / Чудо-женщина (Original Motion Picture Soundtrack) (2017) [MP3|320 кб / с]<Soundtrack>
  • Rupert Gregson-Williams - Wonder Woman / Чудо-женщина (Original Motion Picture Soundtrack) (2017) [FLAC|Lossless|tracks+ .cue]<Soundtrack>
  • Чудо-женщина / Wonder Woman (2017) TS [AD]
  • Чудо-женщина / Wonder Woman (2017) WEBRip [H.264 / 1080p-LQ] [Звук с TS] [AD]
  • Чудо-женщина / Wonder Woman (2017) WEBRip [Звук с TS] [AD]
  • Чудо-женщина / Wonder Woman (2017) WEBRip [H.264 / 1080p-LQ] [MVO] [AD]
  • Чудо-женщина / Wonder Woman (2017) WEBRip [H.264 / 1080p-LQ] [Звук с TS]


    • Комментарии (0):

      Информация

      Информация

        Посетители, находящиеся в группе Гости, не могут оставлять комментарии в данной новости.

        ↓ Меню




        ↓ Опрос

        Вы добавили сайт в закладки?
        Да
        Нет


        Популярное

        Футурама / Futurama (1999-2013) DVDRip (7 Сезонов, 140 серии) скачать через торрент бесплатно

        (скачиваний: 70)
        Малышарики (2015-2019) WEB-DL [H.264 / 1080p-LQ] (серии 1-154 из 208) [Обновляемая]

        (скачиваний: 60)
        Жила-была царевна (2015-2019) WEB-DLRip [H.264 / 720p-LQ] (сезон 1, серии 1-18 из 26) [Обновляемая]

        (скачиваний: 36)
        Металионы / Metalions (2018-2019) WEB-DLRip [H.264 / 720p-LQ] (сезон 1, серии 1-52 из 52) [Обновляемая]

        (скачиваний: 32)
        Три кота (2018) WEB-DLRip [H.264 / 720p-LQ] (сезон 3, серии 105-106 из 156)

        (скачиваний: 27)
        В гостях у сказки (сборник 56 фильмов) (1939-2009) DVDRip

        (скачиваний: 26)
        Рик и Морти / Rick and Morty (2013) BDRip [H.264 / 1080p] (Сезон 1, серии 1-11 из 11) Сыендук [EN Sub] скачать через торрент бесплатно

        (скачиваний: 19)
        Спокойной ночи, малыши! (2009, 2015) SATRip, TVRip (83 выпусков)

        (скачиваний: 19)
        Роботы-поезда / Robot Trains (2017) WEB-DL [H.264 / 720p-LQ] (1 сезон, 32 серий из 32)

        (скачиваний: 15)
        Fate / stay night Movie: Heavens Feel - II. Lost Butterfly / Судьба: Ночь схватки. Прикосновение Небес - II. Потерявшаяся бабочка [2019, MV] BDRip 1080p Rus

        (скачиваний: 12)