.
Авторизация | Регистрация
bitok.xyz
» » Бэтмен: Готэм в Газовом Свете / Batman: Gotham by Gaslight (2018) BDRip [H.264 / 1080p] [MVO] торрент скачать бесплатно


    Бэтмен: Готэм в Газовом Свете / Batman: Gotham by Gaslight (2018) BDRip [H.264 / 1080p] [MVO] торрент скачать бесплатно

    Дата: 8-11-2019, 05:00 | .torrent скачали: 1

    Бэтмен: Готэм в Газовом Свете / Batman: Gotham by Gaslight (2018) BDRip [H.264 / 1080p] [MVO]Производство: США, Warner Bros. Animation, DC Comics
    Жанр: Рисованная анимация, Приключения
    Режиссер: Сэм Лью

    Актеры
    Брюс Гринвуд (Брюс Уэйн/Бэтмен), Дженнифер Карпентер (Селина Кайл), Энтони Хэд (Альфред Пенниуорт), Скотт Паттерсон (Джеймс Гордон)

    Описание

    Бэтмен против Джека Потрошителя в альтернативной истории, которая представляет Темного Рыцаря более ста лет назад в Готэме на стыке веков.
    Готэм-Сити переживает золотую эру открытий и промышленности, о чем свидетельствует Всемирная выставка богатого бизнесмена Брюса Уэйна. На дне города, в самых темных переулках, разгуливает убийца. Охотясь на женщин, этот убийца столь же точен, сколь и жесток. В то время как комиссар полиции Джеймс Гордон пытается успокоить страхи граждан Готэма по поводу мясника по имени Джек Потрошитель, Бэтмен в маске линчевателя делает свою собственную детективную работу с помощью знойной и уверенной в себе Селины Кайл. Смотрите как контролируемая дикость убийцы встречает расчетливую скрытность Темного Рыцаря!

    Рейтинг MPAA: R (лицам до 17 лет обязательно присутствие взрослого)
    Дата мировой премьеры: 12.01.2018
    Продолжительность: 01: 17: 02
    Качество видео: BDRip
    Перевод: Многоголосый закадровый (Flarrow Films)
    Субтитры: Отсутствуют
    Видео: AVC/H.264, 1920x1080, ~8633 kbps
    Аудио 1: AC3, 2 ch, 192 kbps | Русский
    Аудио 2: DTS, 6 ch, 1509 kbps | Английский
    General
    Unique ID : 180303840142781264980248103842935328068 (0x87A541A8CC38FCD584E9A060AE61CD44)
    Complete name : (2018) Batman. Gotham by Gaslight_1080p_RU_NNM-Club.mkv
    Format : Matroska
    Format version : Version 4/Version 2
    File size : 5.56 GiB
    Duration : 1 h 17 min
    Overall bit rate : 10.3 Mb/s
    Encoded date : UTC 2019-11-06 15: 45: 04
    Writing application : mkvmerge v7.1.0 (\'Good Love\') 64bit built on Jul 27 2014 13: 06: 55
    Writing library : libebml v1.3.0 + libmatroska v1.4.1
    Cover : Yes
    Attachments : Cover.jpg
    Video
    ID : 1
    Format : AVC
    Format/Info : Advanced Video Codec
    Format profile : High@L4.1
    Format settings : CABAC/5 Ref Frames
    Format settings, CABAC : Yes
    Format settings, ReFrames : 5 frames
    Codec ID : V_MPEG4/ISO/AVC
    Duration : 1 h 17 min
    Bit rate : 8 633 kb/s
    Width : 1 920 pixels
    Height : 1 080 pixels
    Display aspect ratio : 16: 9
    Frame rate mode : Constant
    Frame rate : 23.976 (24000/1001) FPS
    Color space : YUV
    Chroma subsampling : 4: 2: 0
    Bit depth : 8 bits
    Scan type : Progressive
    Bits/(Pixel*Frame) : 0.174
    Stream size : 4.65 GiB (84%)
    Language : English
    Default : No
    Forced : No
    Audio #1
    ID : 2
    Format : AC-3
    Format/Info : Audio Coding 3
    Codec ID : A_AC3
    Duration : 1 h 17 min
    Bit rate mode : Constant
    Bit rate : 192 kb/s
    Channel(s) : 2 channels
    Channel positions : Front: L R
    Sampling rate : 48.0 kHz
    Frame rate : 31.250 FPS (1536 SPF)
    Bit depth : 16 bits
    Compression mode : Lossy
    Stream size : 106 MiB (2%)
    Title : MVO (Flarrow Films)
    Language : Russian
    Service kind : Complete Main
    Default : Yes
    Forced : No
    Audio #2
    ID : 3
    Format : DTS
    Format/Info : Digital Theater Systems
    Codec ID : A_DTS
    Duration : 1 h 17 min
    Bit rate mode : Constant
    Bit rate : 1 509 kb/s
    Channel(s) : 6 channels
    Channel positions : Front: L C R, Side: L R, LFE
    Sampling rate : 48.0 kHz
    Frame rate : 93.750 FPS (512 SPF)
    Bit depth : 24 bits
    Compression mode : Lossy
    Delay relative to video : 3 ms
    Stream size : 831 MiB (15%)
    Title : Original
    Language : English
    Default : No
    Forced : No

    File: (2018) Batman. Gotham by Gaslight_1080p_RU_NNM-Club.mkv
    Duration: 01: 17: 02 (4622.29)
    Track #1: video
    lang: Unknown (1)
    codc: V_MPEG4/ISO/AVC - H264/AVC (22)
    reso: 1920x1080 - 16: 9
    fram: 23.976 fps
    rate: 8633 kbps (8632.73)
    dura: 01: 17: 02 (4622.24)
    size: 4.65 GB (4987822787)
    Track #2: audio (MVO (Flarrow Films))
    lang: rus - Russian (15)
    codc: A_AC3 - AC3 (2)
    chan: 2 - Stereo
    samp: 48000 Hz
    rate: 192 kbps (192.04)
    dura: 01: 17: 01 (4620.99)
    size: 105.79 MB (110926349)
    Track #3: audio (Original)
    lang: Unknown (1)
    codc: A_DTS - DTS (13)
    chan: 6 - 5.1 Surround
    samp: 48000 Hz
    rate: 1509 kbps (1509.10)
    dura: 01: 17: 02 (4622.25)
    size: 831.54 MB (871931757)
    Sizes: (check sanity)
    disk: 5.56 GB (5972291894)
    atts: 107.10 KB (109674)
    trac: 1.56 GB (1675713597) based on track size
    bitr: 5.56 GB (5970709820) based on bitrate
    tdif: 4.00 GB (4296468623) 71.94%
    bdif: 1.40 MB (1472399) 0.02%

    Скриншоты для ознакомления



    Все одноименные релизы в Клубе
    Время раздачи: 24/7 (круглосуточно) (до появления первых 3-5 скачавших)

    Онлайн видео Бэтмен: Готэм в Газовом Свете



    Бэтмен: Готэм в Газовом Свете/Batman: Gotham by Gaslight (2018) BDRip [H.264/1080p] [MVO]
    Рейтинг →
     (голосов: 1, оценка 5/5, голосовать можно 1 раз )

    Другие торренты по теме:

  • Бэтмен: Готэм в газовом свете / Batman: Gotham by Gaslight (2018) WEB-DL [H.264 / 720p-LQ] [EN / EN Sub]


    • Комментарии (0):

      Информация

      Информация

        Посетители, находящиеся в группе Гости, не могут оставлять комментарии в данной новости.

        ↓ Меню




        ↓ Опрос

        Вы добавили сайт в закладки?
        Да
        Нет


        Популярное

        Футурама / Futurama (1999-2013) DVDRip (7 Сезонов, 140 серии) скачать через торрент бесплатно

        (скачиваний: 70)
        Малышарики (2015-2019) WEB-DL [H.264 / 1080p-LQ] (серии 1-154 из 208) [Обновляемая]

        (скачиваний: 57)
        Жила-была царевна (2015-2019) WEB-DLRip [H.264 / 720p-LQ] (сезон 1, серии 1-18 из 26) [Обновляемая]

        (скачиваний: 34)
        Металионы / Metalions (2018-2019) WEB-DLRip [H.264 / 720p-LQ] (сезон 1, серии 1-52 из 52) [Обновляемая]

        (скачиваний: 32)
        В гостях у сказки (сборник 56 фильмов) (1939-2009) DVDRip

        (скачиваний: 26)
        Три кота (2018) WEB-DLRip [H.264 / 720p-LQ] (сезон 3, серии 105-106 из 156)

        (скачиваний: 25)
        Спокойной ночи, малыши! (2009, 2015) SATRip, TVRip (83 выпусков)

        (скачиваний: 19)
        Рик и Морти / Rick and Morty (2013) BDRip [H.264 / 1080p] (Сезон 1, серии 1-11 из 11) Сыендук [EN Sub] скачать через торрент бесплатно

        (скачиваний: 18)
        Роботы-поезда / Robot Trains (2017) WEB-DL [H.264 / 720p-LQ] (1 сезон, 32 серий из 32)

        (скачиваний: 13)
        Fate / stay night Movie: Heavens Feel - II. Lost Butterfly / Судьба: Ночь схватки. Прикосновение Небес - II. Потерявшаяся бабочка [2019, MV] BDRip 1080p Rus

        (скачиваний: 12)