.
Авторизация | Регистрация
bitok.xyz
» » Отряд самоубийц: Адская расплата / Suicide Squad: Hell to Pay (2018) WEB-DL [H.264 / 1080p-LQ] [MVO] торрент скачать бесплатно

    Отряд самоубийц: Адская расплата / Suicide Squad: Hell to Pay (2018) WEB-DL [H.264 / 1080p-LQ] [MVO] торрент скачать бесплатно

    Дата: 8-11-2019, 05:00 | .torrent скачали: 0

    Отряд самоубийц: Адская расплата / Suicide Squad: Hell to Pay (2018) WEB-DL [H.264 / 1080p-LQ] [MVO]Производство: США, Warner Bros. Animation, DC Comics
    Жанр: Рисованная анимация, Приключения
    Режиссер: Сэм Лью
    Персонажи: Дедшот, Профессор Зум, Капитан Бумеранг, Харли Куинн, Бронзовый Тигр

    Описание

    Аманда Уоллер отправляет Оперативную Группу Икс, состоящую из Дедшота, графа Вертиго, Чёрной Манты и криминальной пары Панча и Джюели, чтобы похитить флешку Тобиаса Уэйла. После успешного завершения миссии Вертиго и Джюели внезапно нападают на Дедшота и убивают Панча. Тайно следящая за ними Уоллер активирует бомбы, имплантированные в шеи бунтовщиков. Вертиго взрывается, но Дедшот успевает застрелить Джюели из сострадания.
    Три года спустя профессор Пиг пытается прооперировать Двуликого. Внезапно появляются Скандал Сэвидж и Нокаут и предлагают безумному доктору другую работу.

    Рейтинг MPAA: R (лицам до 17 лет обязательно присутствие взрослого)
    Дата мировой премьеры: 23.03.2018
    Продолжительность: 01: 26: 03
    Качество видео: WEB-DL
    Перевод: Многоголосый закадровый (Flarrow Films)
    Субтитры: Отсутствуют
    Видео: AVC/H.264, 1920x1080, ~5973 kbps
    Аудио 1: AC3, 2 ch, 192 kbps | Русский
    Аудио 2: DTS, 6 ch, 2467 kbps | Английский
    General
    Unique ID : 205962704164752250338132553770185225569 (0x9AF2F953FC9DCA68883CBA039BCF7561)
    Complete name : (2018) Suicide Squad. Hell to Pay_1080p_RU_NNM-Club.mkv
    Format : Matroska
    Format version : Version 4/Version 2
    File size : 5.19 GiB
    Duration : 1 h 26 min
    Overall bit rate : 8 629 kb/s
    Encoded date : UTC 2019-11-06 02: 49: 19
    Writing application : mkvmerge v7.1.0 (\'Good Love\') 64bit built on Jul 27 2014 13: 06: 55
    Writing library : libebml v1.3.0 + libmatroska v1.4.1
    Cover : Yes
    Attachments : Cover.jpg
    Video
    ID : 1
    Format : AVC
    Format/Info : Advanced Video Codec
    Format profile : High@L4.1
    Format settings : CABAC/4 Ref Frames
    Format settings, CABAC : Yes
    Format settings, ReFrames : 4 frames
    Codec ID : V_MPEG4/ISO/AVC
    Duration : 1 h 26 min
    Bit rate : 5 973 kb/s
    Width : 1 920 pixels
    Height : 1 080 pixels
    Display aspect ratio : 16: 9
    Frame rate mode : Constant
    Frame rate : 23.976 (24000/1001) FPS
    Color space : YUV
    Chroma subsampling : 4: 2: 0
    Bit depth : 8 bits
    Scan type : Progressive
    Bits/(Pixel*Frame) : 0.120
    Stream size : 3.59 GiB (69%)
    Writing library : x264 core 155 r2901 7d0ff22
    Encoding settings : cabac=1/ref=4/deblock=1: -3: -3/analyse=0x3: 0x113/me=umh/subme=10/psy=1/psy_rd=1.00: 0.05/mixed_ref=1/me_range=48/chroma_me=1/trellis=2/8x8dct=1/cqm=0/deadzone=21, 11/fast_pskip=0/chroma_qp_offset=-2/threads=12/lookahead_threads=2/sliced_threads=0/nr=0/decimate=1/interlaced=0/bluray_compat=0/constrained_intra=0/bframes=8/b_pyramid=2/b_adapt=2/b_bias=0/direct=3/weightb=1/open_gop=0/weightp=2/keyint=250/keyint_min=23/scenecut=40/intra_refresh=0/rc_lookahead=40/rc=crf/mbtree=0/crf=16.0/qcomp=0.60/qpmin=0/qpmax=69/qpstep=4/vbv_maxrate=50000/vbv_bufsize=45000/crf_max=0.0/nal_hrd=none/filler=0/ip_ratio=1.40/pb_ratio=1.30/aq=3: 1.00
    Language : English
    Default : Yes
    Forced : Yes
    Color range : Limited
    Matrix coefficients : BT.709
    Audio #1
    ID : 2
    Format : AC-3
    Format/Info : Audio Coding 3
    Codec ID : A_AC3
    Duration : 1 h 26 min
    Bit rate mode : Constant
    Bit rate : 192 kb/s
    Channel(s) : 2 channels
    Channel positions : Front: L R
    Sampling rate : 48.0 kHz
    Frame rate : 31.250 FPS (1536 SPF)
    Bit depth : 16 bits
    Compression mode : Lossy
    Delay relative to video : 1 s 0 ms
    Stream size : 118 MiB (2%)
    Title : MVO (Flarrow Films)
    Language : Russian
    Service kind : Complete Main
    Default : Yes
    Forced : No
    Audio #2
    ID : 3
    Format : DTS
    Format/Info : Digital Theater Systems
    Format profile : MA/Core
    Codec ID : A_DTS
    Duration : 1 h 26 min
    Bit rate mode : Variable/Constant
    Bit rate : 2 466 kb/s/1 509 kb/s
    Channel(s) : 6 channels
    Channel positions : Front: L C R, Side: L R, LFE
    Sampling rate : 48.0 kHz
    Frame rate : 93.750 FPS (512 SPF)
    Bit depth : 24 bits
    Compression mode : Lossless/Lossy
    Stream size : 1.48 GiB (29%)
    Title : Original
    Language : English
    Default : No
    Forced : No

    File: (2018) Suicide Squad. Hell to Pay_1080p_RU_NNM-Club.mkv
    Duration: 01: 26: 07 (5166.89) - WARNING: Differs from video duration! (3.90 sec)
    Track #1: video
    lang: Unknown (1)
    codc: V_MPEG4/ISO/AVC - H264/AVC (22)
    reso: 1920x1080 - 16: 9
    fram: 23.976025 fps
    rate: 5973 kbps (5972.759277)
    dura: 01: 26: 03 (5162.991211)
    size: 3.59 GB (3854663094)
    Track #2: audio (MVO (Flarrow Films))
    lang: rus - Russian (15)
    codc: A_AC3 - AC3 (2)
    chan: 2 - Stereo
    samp: 48000 Hz
    rate: 192 kbps (192.03)
    dura: 01: 26: 06 (5165.86)
    size: 118.26 MB (124002799)
    Track #3: audio (Original)
    lang: Unknown (1)
    codc: A_DTS - DTS (13)
    chan: 6 - 5.1 Surround
    samp: 48000 Hz
    rate: 2467 kbps (2467.37)
    dura: 01: 26: 03 (5163.03)
    size: 1.48 GB (1592387620)
    Sizes: (check sanity)
    disk: 5.19 GB (5572842385)
    atts: 125.42 KB (128430)
    trac: 5.19 GB (5571053513) based on track size
    bitr: 5.19 GB (5570972768) based on bitrate
    tdif: 1.58 MB (1660442) 0.02%
    bdif: 1.66 MB (1741186) 0.03%
    30.07.2013 Justice League: The Flashpoint Paradox| Лига справедливости: Парадокс источника конфликта
    04.02.2014 Justice League: War| Лига Справедливости: Война
    06.05.2014 Son of Batman| Сын Бэтмена
    27.01.2015 Justice League: Throne of Atlantis| Лига Справедливости: Трон Атлантиды
    27.01.2015 Nightwing and Robin| Найтвинг и Робин (Короткометражка)
    14.04.2015 Batman vs. Robin| Бэтмен против Робина
    02.02.2016 Batman: Bad Blood| Бэтмен: Дурная кровь
    26.03.2016 Justice League vs. Teen Titans| Лига Справедливости против Юных Титанов
    24.01.2017 Justice League Dark| Тёмная Лига Справедливости
    31.03.2017 Teen Titans: The Judas Contract| Юные Титаны: Контракт Иуды
    27.03.2018 Suicide Squad: Hell to Pay| Отряд самоубийц: Адская расплата
    24.07.2018 Death of Superman| Смерть Супермена
    09.10.2018 Constantine: City of Demons| Константин: Город демонов
    15.01.2019 Reign of the Supermen| Господство Суперменов
    20.07.2019 Batman: Hush| Бэтмен: Тихо!
    22.10.2019 Wonder Woman: Bloodlines| Чудо-женщина: Родословная
    Выход в 2020 Justice League Dark: Apokolips War| Тёмная Лига Справедливости: Война Апоколипса
    Скриншоты для ознакомления



    Все одноименные релизы в Клубе
    Время раздачи: 24/7 (круглосуточно) (до появления первых 3-5 скачавших)

    Онлайн видео Отряд самоубийц: Адская расплата


    Прямая ссылка скачивания через uTorrent


    Отряд самоубийц: Адская расплата/Suicide Squad: Hell to Pay (2018) WEB-DL [H.264/1080p-LQ] [MVO]
    Рейтинг →
     (голосов: 1, оценка 5/5, голосовать можно 1 раз )

    Другие торренты по теме:

  • Отряд самоубийц / Suicide Squad (2016) WEBRip [H.264 / 1080p] [Трейлер] [EN] скачать через торрент бесплатно
  • Отряд самоубийц / Suicide Squad (2016) WEBRip [H.264 / 1080p] [Трейлер] скачать через торрент бесплатно
  • Отряд самоубийц / Suicide Squad(2016)
  • Suicide Squad: The Album - Отряд самоубийц (2016) [MP3|320 Kbps] <Soundtrack>
  • Отряд самоубийц / Suicide Squad (2016) TS
  • VA - Suicide Squad / Отряд самоубийц (The Album) (2016) [FLAC|Lossless|WEB-DL|tracks]<Soundtrack>
  • Steven Price - Suicide Squad / Отряд самоубийц (Original Motion Picture Score) (2016) Deluxe Edition [FLAC|Lossless|WEB-DL|tracks]<Soundtrack, Score>
  • Steven Price - Suicide Squad / Отряд самоубийц (Original Motion Picture Score) (2016) Deluxe Edition [MP3|320 кб / с]<Soundtrack, Score>


    • Комментарии (0):

      Информация

      Информация

        Посетители, находящиеся в группе Гости, не могут оставлять комментарии в данной новости.

        ↓ Меню




        ↓ Опрос

        Вы добавили сайт в закладки?
        Да
        Нет


        Популярное